Download Comedy Nights with Kapil 14th July 2013 Full Episode HD khalsa torrent

Comedy Nights with Kapil 14th July 2013 Full Episode HD khalsa torrent

Total size: 268.77 Mb Seeds 0 Leechs 0
General
Complete name                            : Comedy Nights with Kapil - 14th July 2013 - Full Episode (HD) (khalsa)Comedy Nights with Kapil - 14th July 2013 - Full Episode (HD) (khalsa).mp4
Format                                   : MPEG-4
Format profile                           : Base Media / Version 2
Codec ID                                 : mp42
File size                                : 269 MiB
Duration                                 : 53mn 4s
Overall bit rate mode                    : Variable
Overall bit rate                         : 708 Kbps
Encoded date                             : UTC 2013-07-13 19:43:03
Tagged date                              : UTC 2013-07-13 19:43:03
Video
ID                                       : 1
Format                                   : AVC
Format/Info                              : Advanced Video Codec
Format profile                           : Baseline@L3.0
Format settings, CABAC                   : No
Format settings, ReFrames                : 1 frame
Codec ID                                 : avc1
Codec ID/Info                            : Advanced Video Coding
Duration                                 : 53mn 4s
Bit rate                                 : 609 Kbps
Maximum bit rate                         : 1 345 KbpsWidth                                    : 640 pixels
Height                                   : 360 pixels
Display aspect ratio                     : 16:9
Frame rate mode                          : Constant
Frame rate                               : 25.000 fps
Color space                              : YUV
Chroma subsampling                       : 4:2:0
Bit depth                                : 8 bits
Scan type                                : Progressive
Bits/(Pixel*Frame)                       : 0.106
Stream size                              : 231 MiB (86%)
Tagged date                              : UTC 2013-07-13 19:44:19
Audio
ID                                       : 2
Format                                   : AAC
Format/Info                              : Advanced Audio Codec
Format profile                           : LC
Codec ID                                 : 40
Duration                                 : 53mn 4s
Bit rate mode                            : Variable
Bit rate                                 : 96.0 Kbps
Maximum bit rate                         : 102 Kbps
Channel(s)                               : 2 channels
Channel positions                        : Front: L R
Sampling rate                            : 44.1 KHz
Compression mode                         : Lossy
Stream size                              : 36.4 MiB (14%)
Title                                    : IsoMedia File Produced by Google, 5-11-2011
Encoded date                             : UTC 2013-07-13 19:43:47
Tagged date                              : UTC 2013-07-13 19:44:19please seed after downloadingplease comment and respect me
FileSize
Comedy Nights with Kapil - 14th July 2013 - Full Episode (HD) (khalsa)/Comedy Nights with Kapil - 14th July 2013 - Full Episode (HD) (khalsa).mp4268.57 Mb
Comedy Nights with Kapil - 14th July 2013 - Full Episode (HD) (khalsa)/screens/Comedy Nights with Kapil - 14th July 2013 - Full Episode (HD) (khalsa)[13-05-13].JPG43.31 Kb
Comedy Nights with Kapil - 14th July 2013 - Full Episode (HD) (khalsa)/screens/Comedy Nights with Kapil - 14th July 2013 - Full Episode (HD) (khalsa)[13-04-58].JPG40.45 Kb
Comedy Nights with Kapil - 14th July 2013 - Full Episode (HD) (khalsa)/screens/Comedy Nights with Kapil - 14th July 2013 - Full Episode (HD) (khalsa)[13-08-53].JPG33.29 Kb
Comedy Nights with Kapil - 14th July 2013 - Full Episode (HD) (khalsa)/screens/Comedy Nights with Kapil - 14th July 2013 - Full Episode (HD) (khalsa)[13-05-04].JPG32.06 Kb
Comedy Nights with Kapil - 14th July 2013 - Full Episode (HD) (khalsa)/screens/Comedy Nights with Kapil - 14th July 2013 - Full Episode (HD) (khalsa)[13-04-55].JPG29.32 Kb
Comedy Nights with Kapil - 14th July 2013 - Full Episode (HD) (khalsa)/screens/Comedy Nights with Kapil - 14th July 2013 - Full Episode (HD) (khalsa)[13-09-03].JPG23.09 Kb
Comedy Nights with Kapil - 14th July 2013 - Full Episode (HD) (khalsa)/info.txt2.86 Kb
Comedy Nights with Kapil - 14th July 2013 - Full Episode (HD) (khalsa)/extratorrent.com.txt87.00 b
TrackerSeedsLeechsDownloaded
udp://tracker.openbittorrent.com:80/scrape000
udp://tracker.publicbt.com:80/scrape000
udp://tracker.istole.it:80/scrape000
udp://9.rarbg.com:2710/scrape000
http://tracker.publicbt.com:80/scrape000
http://exodus.desync.com/scrape000
Report this torrent
We will carefully monitor this report and react whenever possible.
Thanks for helping us in filtering out bad content and improving TorrentReactor for every other visitor!
Please login or register to be able to report torrents.

Your comment

Please Login or register to be able to add comments.

All comments

No one has added a comment yet. Be the first one.

Related torrents

Comedy Nights with Kapil 14th July 2013 Full Episode HD khalsa, related to Comedy Nights with Kapil 14th July 2013 Full Episode HD khalsa