The Conjuring 2013 DVDRip XviD IGUANA

The Conjuring 2013 DVDRip XviD IGUANA

Total size: 689.08 Mb
Removed by the request of copyright owner

The Conjuring 2013 DVDRip XviD IGUANA
Video
ID                                       : 1
Format                                   : AVC
Format/Info                              : Advanced Video Codec
Format profile                           : Main@L2.2
Format settings, CABAC                   : Yes
Format settings, ReFrames                : 4 frames
Codec ID                                 : V_MPEG4/ISO/AVC
Duration                                 : 1h 45mn
Bit rate                                 : 1 200 Kbps
Width                                    : 720 pixels
Height                                   : 288 pixels
Display aspect ratio                     : 2.40:1
Frame rate mode                          : Constant
Frame rate                               : 25.000 fps
Color space                              : YUV
Chroma subsampling                       : 4:2:0
Bit depth                                : 8 bits
Scan type                                : Progressive
Bits/(Pixel*Frame)                       : 0.231
Stream size                              : 879 MiB (71%)
Writing library                          : x264 core 125

Audio
ID                                       : 2
Format                                   : AC-3
Format/Info                              : Audio Coding 3
Mode extension                           : CM (complete main)
Format settings, Endianness              : Big
Codec ID                                 : A_AC3
Duration                                 : 1h 45mn
Bit rate mode                            : Constant
Bit rate                                 : 448 Kbps
Channel(s)                               : 6 channels
Channel positions                        : Front: L C R, Side: L R, LFE
Sampling rate                            : 48.0 KHz
Bit depth                                : 16 bits
Compression mode                         : Lossy
Stream size                              : 339 MiB (27%)
Language                                 : English
Default                                  : Yes
Forced                                   : No
 


FileSize
The Conjuring.2013.DVDRip.XviD-IGUANA/The Conjuring.2013.DVDRip.XviD-IGUANA.wmv689.08 Mb
The Conjuring.2013.DVDRip.XviD-IGUANA/info.nfo5.09 Kb
TrackerSeedsLeechsDownloaded
udp://tracker.openbittorrent.com:80/scrape000
udp://tracker.publicbt.com:80/scrape000
http://tracker.dnsrd.com/app/scrape.php000

It's removed by the request of copyright owner, but we have tons of cool stuff like this:

Search for full movies the conjuring, related to the conjuring