English

18+ Zindagi 50 50 2013 Hindi Movies HD BRRip 720P ESubs Sample Included ~ ☻rDX☻

Total size: 891.33 Mb Seeds 44 Leechs 40
18+ Zindagi 50 50 2013 Hindi Movies HD BRRip 720P ESubs Sample Included ~ ☻rDX☻
							18+ Zindagi 50 50 2013 Hindi Movies HD BRRip 720P ESubs Sample Included ~ ☻rDX☻Screen Shots :http://myimghosting.serveftp.com/13/Zindagi5050.htmlhttp://myimghost.cwahi.net/Zindagi5050.html
Format : MPEG-4
Format profile : Base Media
Codec ID : isom
File size : 863 MiB
Duration : 2h 3mn
Overall bit rate mode : Variable
Overall bit rate : 979 Kbps
Writing application : Lavf52.34.0
Video
ID : 1
Format : AVC
Format/Info : Advanced Video Codec
Format profile : High@L4.1
Format settings, CABAC : Yes
Format settings, ReFrames : 12 frames
Codec ID : avc1
Codec ID/Info : Advanced Video Coding
Duration : 2h 3mn
Bit rate : 910 Kbps
Width : 1 280 pixels
Height : 544 pixels
Display aspect ratio : 2.35:1
Frame rate mode : Constant
Frame rate : 23.976 fps
Color space : YUV
Chroma subsampling : 4:2:0
Bit depth : 8 bits
Scan type : Progressive
Bits/(Pixel*Frame) : 0.055
Stream size : 803 MiB (93%)
Color primaries : Generic film
Transfer characteristics : BT.709
Matrix coefficients : BT.709
Audio
ID : 2
Format : AAC
Format/Info : Advanced Audio Codec
Format profile : LC
Codec ID : 40
Duration : 2h 3mn
Bit rate mode : Variable
Bit rate : 64.0 Kbps
Channel(s) : 2 channels
Channel positions : Front: L R
Sampling rate : 44.1 KHz
Compression mode : Lossy
Stream size : 56.5 MiB (7%)
						
FileSize
18+ Zindagi 50 50 2013 Hindi Movies HD BRRip 720P ESubs Sample Included ~ ☻rDX☻/18+ Zindagi 50 50 2013 Hindi Movies HD BRRip 720P ESubs ~ ☻rDX☻.mp4863.15 Mb
18+ Zindagi 50 50 2013 Hindi Movies HD BRRip 720P ESubs Sample Included ~ ☻rDX☻/Sample ~ 18+ Zindagi 50 50 2013 Hindi Movies HD BRRip 720P ESubs ~ ☻rDX☻.mp421.31 Mb
18+ Zindagi 50 50 2013 Hindi Movies HD BRRip 720P ESubs Sample Included ~ ☻rDX☻/18+ Zindagi 50 50 2013 Hindi Movies HD BRRip 720P ESubs ~ ☻rDX☻.sub6.80 Mb
18+ Zindagi 50 50 2013 Hindi Movies HD BRRip 720P ESubs Sample Included ~ ☻rDX☻/18+ Zindagi 50 50 2013 Hindi Movies HD BRRip 720P ESubs ~ ☻rDX☻.idx80.69 Kb
TrackerSeedsLeechsDownloaded
udp://tracker.publicbt.com:80/scrape7710
udp://tracker.openbittorrent.com:80/scrape4910
udp://tracker.istole.it:80/scrape111010
udp://9.rarbg.com:2710/scrape1171571
http://exodus.desync.com/scrape11773

Report this torrent

We will carefully monitor this report and react whenever possible.
Thanks for helping us in filtering out bad content and improving TorrentReactor for every other visitor!
Please login or register to be able to report torrents.

Your comment

Please Login or register to be able to add comments.

All comments

No one has added a comment yet. Be the first one.

Related torrents

18+ Zindagi 50 50 2013 Hindi Movies HD BRRip 720P ESubs Sample Included ~ ☻rDX☻, related to 18+ Zindagi 50 50 2013 Hindi Movies HD BRRip 720P ESubs Sample Included ~ ☻rDX☻