Listen Amaya 2013 Hindi Movies HD DVDRip XviD New Source Sample Included ~ ☻rDX☻ torrent

Total size: 700.42 Mb Seeds 7 Leechs 10
Listen Amaya 2013 Hindi Movies HD DVDRip XviD New Source Sample Included ~ ☻rDX☻
Screen Shots :http://myimghosting.serveftp.com/13/ListenAmaya.htmlhttp://myimghost.cwahi.net/ListenAmaya.html
http://myimghosting.serveftp.com/13/ListenAmaya.htmlhttp://myimghost.cwahi.net/ListenAmaya.html
Format : AVI
Format/Info : Audio Video Interleave
File size : 678 MiB
Duration : 1h 40mn
Overall bit rate mode : Variable
Overall bit rate : 941 Kbps
Writing library : MPlayer
Video
ID : 0
Format : MPEG-4 Visual
Format profile : Advanced Simple@L5
Format settings, BVOP : 3
Format settings, QPel : No
Format settings, GMC : No warppoints
Format settings, Matrix : Default (H.263)
Codec ID : XVID
Codec ID/Hint : XviD
Duration : 1h 40mn
Bit rate : 842 Kbps
Width : 672 pixels
Height : 288 pixels
Display aspect ratio : 2.35:1
Frame rate : 25.000 fps
Color space : YUV
Chroma subsampling : 4:2:0
Bit depth : 8 bits
Scan type : Progressive
Compression mode : Lossy
Bits/(Pixel*Frame) : 0.174
Stream size : 607 MiB (89%)
Writing library : XviD 1.2.1 (UTC 2008-12-04)
Audio
ID : 1
Format : MPEG Audio
Format version : Version 1
Format profile : Layer 3
Mode : Joint stereo
Mode extension : MS Stereo
Codec ID : 55
Codec ID/Hint : MP3
Duration : 1h 40mn
Bit rate mode : Variable
Bit rate : 88.8 Kbps
Channel(s) : 2 channels
Sampling rate : 32.0 KHz
Compression mode : Lossy
Stream size : 64.0 MiB (9%)
Alignment : Aligned on interleaves
Interleave, duration : 36 ms (0.90 video frame)
Interleave, preload duration : 454 ms
Writing library : LAME3
FileSize
Listen Amaya 2013 Hindi Movies HD DVDRip XviD New Source Sample Included ~ ☻rDX☻/Listen Amaya 2013 Hindi Movies HD DVDRip XviD New Source ~ ☻rDX☻.avi678.34 Mb
Listen Amaya 2013 Hindi Movies HD DVDRip XviD New Source Sample Included ~ ☻rDX☻/Sample ~ Listen Amaya 2013 Hindi Movies HD DVDRip XviD New Source ~ ☻rDX☻.avi22.08 Mb
TrackerSeedsLeechsDownloaded
udp://9.rarbg.com:2710/scrape122
udp://tracker.openbittorrent.com:80/scrape2110
udp://tracker.istole.it:80/scrape2310
udp://coppersurfer.tk:6969/scrape120
udp://tracker.publicbt.com:80/scrape1210
http://exodus.desync.com/scrape000
Report this torrent
We will carefully monitor this report and react whenever possible.
Thanks for helping us in filtering out bad content and improving TorrentReactor for every other visitor!
Please login or register to be able to report torrents.

Your comment
Please Login or register to be able to add comments.
All comments

No one has added a comment yet. Be the first one.

Related torrents
Listen Amaya 2013 Hindi Movies HD DVDRip XviD New Source Sample Included ~ ☻rDX☻, related to Listen Amaya 2013 Hindi Movies HD DVDRip XviD New Source Sample Included ~ ☻rDX☻