English

Saige Paints the Sky 2013 DVDRip XViD juggs

Total size: 712.53 Mb Seeds 48 Leechs 3
 http://www.imdb.com/title/tt2818348/

Format                                   : AVI
Format/Info                              : Audio Video Interleave
File size                                : 698 MiB
Duration                                 : 1h 39mn
Overall bit rate                         : 978 Kbps
Writing library                          : VirtualDub build 32842/release

Video
ID                                       : 0
Format                                   : MPEG-4 Visual
Format profile                           : Advanced Simple@L5
Format settings, BVOP                    : 2
Format settings, QPel                    : No
Format settings, GMC                     : No warppoints
Format settings, Matrix                  : Default (H.263)
Muxing mode                              : Packed bitstream
Codec ID                                 : XVID
Codec ID/Hint                            : XviD
Duration                                 : 1h 39mn
Bit rate                                 : 841 Kbps
Width                                    : 640 pixels
Height                                   : 352 pixels
Display aspect ratio                     : 16:9
Frame rate                               : 23.976 fps
Color space                              : YUV
Chroma subsampling                       : 4:2:0
Bit depth                                : 8 bits
Scan type                                : Progressive
Compression mode                         : Lossy
Bits/(Pixel*Frame)                       : 0.156
Stream size                              : 600 MiB (86%)
Writing library                          : XviD 1.2.1 (UTC 2008-12-04)

Audio
ID                                       : 1
Format                                   : MPEG Audio
Format version                           : Version 1
Format profile                           : Layer 3
Codec ID                                 : 55
Codec ID/Hint                            : MP3
Duration                                 : 1h 39mn
Bit rate mode                            : Constant
Bit rate                                 : 128 Kbps
Channel(s)                               : 2 channels
Sampling rate                            : 44.1 KHz
Compression mode                         : Lossy
Stream size                              : 91.4 MiB (13%)
Alignment                                : Split accross interleaves
Interleave, duration                     : 42 ms (1.00 video frame)
Interleave, preload duration             : 500 ms
Writing library                          : LAME3.99r
 
http://img208.imageshack.us/img208/5923/m4q8.png 
http://img713.imageshack.us/img713/152/p3c.png 
http://img694.imageshack.us/img694/6941/4ke.png		
FileSize
Saige Paints the Sky 2013 DVDRip XViD juggs/Saige Paints the Sky 2013 DVDRip XViD juggs.avi698.38 Mb
Saige Paints the Sky 2013 DVDRip XViD juggs/Torrent Downloaded From ExtraTorrent.com.txt339.00 b
Saige Paints the Sky 2013 DVDRip XViD juggs/sample.avi14.15 Mb
TrackerSeedsLeechsDownloaded
udp://tracker.openbittorrent.com:80/scrape1013
udp://9.rarbg.com:2710/scrape11179
udp://11.rarbg.com:80/scrape1602
http://fr33dom.h33t.com:3310/scrape000
http://tracker.thepiratebay.org/scrape000
http://tracker.ex.ua/scrape111377

Report this torrent

We will carefully monitor this report and react whenever possible.
Thanks for helping us in filtering out bad content and improving TorrentReactor for every other visitor!
Please login or register to be able to report torrents.

Your comment

Please Login or register to be able to add comments.

All comments

No one has added a comment yet. Be the first one.

Related torrents

Saige Paints the Sky 2013 DVDRip XViD juggs, related to Saige Paints the Sky 2013 DVDRip XViD juggs