Download L'Inconnu du lac 2013 FRENCH DVDRip XviD - playHD torrent

L'Inconnu du lac 2013 FRENCH DVDRip XviD - playHD torrent

Total size: 700.99 Mb Seeds 0 Leechs 0
L'Inconnu du lac 2013 FRENCH DVDRip XviD - playHD
L'Inconnu du lac 2013 FRENCH DVDRip XviD - playHD


STATS:

Video
ID                               : 0
Format                           : MPEG-4 Visual
Format profile                   : Advanced Simple@L5
Format settings, BVOP            : 2
Format settings, QPel            : No
Format settings, GMC             : No warppoints   
Format settings, Matrix          : Default (MPEG)       
Muxing mode                      : Packed bitstream      
Codec ID                         : XVID 
Codec ID/Hint                    : XviD
Duration                         : 1h 45mn
Bit rate                         : 986 Kbps 
Width                            : 720 pixels     
Height                           : 320 pixels
Display aspect ratio             : 2.25:1
Frame rate                       : 29.970 fps       
Color space                      : YUV
Chroma subsampling               : 4:2:0
Bit depth                        : 8 bits
Scan type                        : Progressive
Compression mode                 : Lossy
Bits/(Pixel*Frame)               : 0.243
Stream size                      : 643 MiB (92%)
Writing library                  : XviD 64

Audio

Format                           : MPEG Audio
Format version                   : Version 1
Format profile                   : Layer 3
Mode                             : Joint stereo
Mode extension                   : MS Stereo
Codec ID                         : 55
Codec ID/Hint                    : MP3
Duration                         : 1h 45mn
Bit rate mode                    : Constant
Bit rate                         : 128 Kbps
Channel(s)                       : 2 channels
Sampling rate                    : 48.0 KHz
Compression mode                 : Lossy
Stream size                      : 56 MiB (7%)
Alignment                        : Split accross interleaves
Interleave, duration             : 33 ms (1.00 video frame)                                
FileSize
L'Inconnu du lac 2013 FRENCH DVDRip XviD - playHD/cover.jpg678.65 Kb
L'Inconnu du lac 2013 FRENCH DVDRip XviD - playHD/L'Inconnu du lac 2013 FRENCH DVDRip XviD - playHD.nfo1.93 Kb
L'Inconnu du lac 2013 FRENCH DVDRip XviD - playHD/L'Inconnu du lac 2013 FRENCH DVDRip XviD - playHD/L'Inconnu du lac 2013 FRENCH DVDRip XviD - playHD.rar699.70 Mb
L'Inconnu du lac 2013 FRENCH DVDRip XviD - playHD/screenshot1.png502.77 Kb
L'Inconnu du lac 2013 FRENCH DVDRip XviD - playHD/screenshot2.png63.13 Kb
L'Inconnu du lac 2013 FRENCH DVDRip XviD - playHD/screenshot3.png80.61 Kb
TrackerSeedsLeechsDownloaded
udp://tracker.openbittorrent.com:80/scrape000
udp://tracker.publicbt.com:80/scrape000
udp://9.rarbg.com:2710/scrape000
http://tracker.torrentbox.com:2710/scrape000
http://fr33dom.h33t.com:3310/scrape000
http://luckybittorrent.com:2710/scrape000
http://scrape.torrentsmd.com:6969/scrape000
http://scrape.torrentsmd.com:8080/scrape.php000
http://scrape.torrentsmd.com:8080/scrape000
http://www.h33t.com:3310/scrape000
http://7ece.co.uk:6969/scrape000
http://tracker.thepiratebay.org/scrape000
http://inferno.demonoid.me:3409/scrape000
http://pow7.com/scrape000
http://secure.pow7.com/scrape000
http://i.bandito.org/scrape000
http://bigfoot1942.sektori.org:6969/scrape000
http://scrape.opensharing.org:2710/scrape000
http://t1.pow7.com/scrape000
http://tracker.tfile.me/scrape000
http://calu-atrack.appspot.com/scrape000
http://greenlietracker.appspot.com/scrape000
http://tracker.ex.ua/scrape000
http://tracker.ex.ua:80/scrape000
http://ccc.ddns.us/tracker/scrape.php000
http://bttrack.9you.com/scrape000
http://1337x.25u.com/app/scrape.php000
http://bt.careland.com.cn:6969/scrape000
http://bigtorrent.org:2710/scrape000
http://tracker.marshyonline.net/scrape000
http://exodus.desync.com:6969/scrape000
http://94.228.192.98/scrape000
http://10.rarbg.com/scrape000
http://tracker.zond.org/scrape000
http://tracker.openbittorrent.com/scrape000
http://94.228.192.98.nyud.net/scrape000
http://calu-atrack.appspot.com.nyud.net/scrape000
http://bt.home-ix.ru.nyud.net/scrape000
http://bt.home-ix.ru.nyud.net/scrape.php000
http://cpleft.com:2710/scrape000
http://tracker.novalayer.org:6969/scrape000
http://tracker.torrentbay.to:6969/scrape000
http://coppersurfer.tk:6969/scrape000
http://tracker.coppersurfer.tk:6969/scrape000
http://bt.poletracker.org:2710/scrape000
http://121.14.98.151:9090/scrape000
http://bt.home-ix.ru/scrape.php000
http://bt.home-ix.ru/scrape000
http://exodus.desync.com/scrape000
http://tracker.torrent.to:2710/scrape000
Report this torrent
We will carefully monitor this report and react whenever possible.
Thanks for helping us in filtering out bad content and improving TorrentReactor for every other visitor!
Please login or register to be able to report torrents.

Your comment
Please Login or register to be able to add comments.
All comments

No one has added a comment yet. Be the first one.

Related torrents
L'Inconnu du lac 2013 FRENCH DVDRip XviD - playHD, related to L'Inconnu du lac 2013 FRENCH DVDRip XviD - playHD