Download Prank torrent

Prank torrent

Total size: 721.29 Mb Seeds 0 Leechs 0
Prank
http://www.imdb.com/title/tt2064905

Format                                   : AVI
Format/Info                              : Audio Video Interleave
Overall bit rate                         : 1 189 Kbps
Writing library                          : VirtualDub build 32842/release

Video
ID                                       : 0
Format                                   : MPEG-4 Visual
Format profile                           : Advanced Simple@L5
Format settings, BVOP                    : 2
Format settings, QPel                    : No
Format settings, GMC                     : No warppoints
Format settings, Matrix                  : Default (H.263)
Muxing mode                              : Packed bitstream
Codec ID                                 : XVID
Codec ID/Hint                            : XviD
Duration                                 : 1h 21mn
Bit rate                                 : 1 051 Kbps
Width                                    : 640 pixels
Height                                   : 352 pixels
Display aspect ratio                     : 16:9
Frame rate                               : 23.976 fps
Color space                              : YUV
Chroma subsampling                       : 4:2:0
Bit depth                                : 8 bits
Scan type                                : Progressive
Compression mode                         : Lossy
Bits/(Pixel*Frame)                       : 0.195
Stream size                              : 616 MiB (88%)
Writing library                          : XviD 64

Audio
ID                                       : 1
Format                                   : MPEG Audio
Format version                           : Version 1
Format profile                           : Layer 3
Mode                                     : Joint stereo
Codec ID                                 : 55
Codec ID/Hint                            : MP3
Duration                                 : 1h 21mn
Bit rate mode                            : Constant
Bit rate                                 : 128 Kbps
Channel(s)                               : 2 channels
Sampling rate                            : 44.1 KHz
Compression mode                         : Lossy
Stream size                              : 75.0 MiB (11%)
Alignment                                : Split accross interleaves
Interleave, duration                     : 42 ms (1.00 video frame)
Interleave, preload duration             : 500 ms
Writing library                          : LAME3.98

 
http://img832.imageshack.us/img832/3702/zto.png 

http://img707.imageshack.us/img707/5259/4wy.png 

http://img845.imageshack.us/img845/7676/2wz5.png
FileSize
Prank./ Prank.2013.WEBRip XViD(UNRATED) -MAMI.avi721.29 Mb
TrackerSeedsLeechsDownloaded
udp://tracker.publicbt.com:80/scrape000
udp://tracker.istole.it:80/scrape000
udp://9.rarbg.com:2710/scrape001
udp://fr33dom.h33t.com:3310/scrape000
udp://fr33domtracker.h33t.com:3310/scrape000
http://tracker.beeimg.com:6969/scrape000
http://www.h33t.com:3310/scrape000
http://fr33dom.h33t.com:3310/scrape000
http://tracker.dler.org:6969/scrape000
http://tracker1.wasabii.com.tw:6969/scrape000
http://p2pdl.com:2710/scrape000
Report this torrent
We will carefully monitor this report and react whenever possible.
Thanks for helping us in filtering out bad content and improving TorrentReactor for every other visitor!
Please login or register to be able to report torrents.

Your comment

Please Login or register to be able to add comments.

All comments

No one has added a comment yet. Be the first one.

Related torrents

Prank, related to Prank