The Internship 2013 TS LiNE XviD RiPRG

The Internship 2013 TS LiNE XviD RiPRG

Total size: 699.95 Mb Seeds 0 Leechs 0
The Internship 2013 TS LiNE XviD RiPRG

General
Format                                   : MPEG-4
Format profile                           : Base Media
Codec ID                                 : isom
File size                                : 550 MiB
Duration                                 : 2h 12mn
Overall bit rate mode                    : Variable
Overall bit rate                         : 579 Kbps

Video
ID                                       : 1
Format                                   : AVC
Format/Info                              : Advanced Video Codec
Format profile                           : High@L4.1
Format settings, CABAC                   : Yes
Format settings, ReFrames                : 4 frames
Codec ID                                 : avc1
Codec ID/Info                            : Advanced Video Coding
Duration                                 : 2h 12mn
Bit rate                                 : 511 Kbps
Maximum bit rate                         : 1 231 Kbps
Width                                    : 682 pixels
Height                                   : 288 pixels
Display aspect ratio                     : 2.35:1
Frame rate mode                          : Constant
Frame rate                               : 29.970 fps
Color space                              : YUV
Chroma subsampling                       : 4:2:0
Bit depth                                : 8 bits
Scan type                                : Progressive
Bits/(Pixel*Frame)                       : 0.087
Stream size                              : 485 MiB (88%)
Writing library                          : x264 core 133 r2334 a3ac64b

Audio
ID                                       : 2
Format                                   : AAC
Format/Info                              : Advanced Audio Codec
Format profile                           : LC
Codec ID                                 : 40
Duration                                 : 2h 12mn
Bit rate mode                            : Variable
Bit rate                                 : 64.0 Kbps
Maximum bit rate                         : 67.2 Kbps
Channel(s)                               : 2 channels
Channel positions                        : Front: L R
Sampling rate                            : 48.0 KHz
Compression mode                         : Lossy
Stream size                              : 60.7 MiB (11%)
		
FileSize
The Internship 2013 TS LiNE XviD-RiPRG/The Internship 2013 TS LiNE XviD-RiPRG .wmv699.78 Mb
The Internship 2013 TS LiNE XviD-RiPRG/subtitles/NL/subtitles.srt69.51 Kb
The Internship 2013 TS LiNE XviD-RiPRG/subtitles/English/subtitles.srt46.43 Kb
The Internship 2013 TS LiNE XviD-RiPRG/subtitles/Polish/subtitles.srt31.13 Kb
The Internship 2013 TS LiNE XviD-RiPRG/MJY.doc27.00 Kb
The Internship 2013 TS LiNE XviD-RiPRG/info.nfo5.09 Kb
TrackerSeedsLeechsDownloaded
udp://9.rarbg.com:2710/scrape000
udp://tracker.openbittorrent.com:80/scrape000
udp://tracker.ex.ua:80/scrape000
http://1337x.25u.com/app/scrape.php000
http://ccc.ddns.us/tracker/scrape.php000
http://www.h33t.com:3310/scrape000
http://scrape.torrentsmd.com:6969/scrape000
http://bigtorrent.org:2710/scrape000
http://scrape.opensharing.org:2710/scrape000
http://scrape.torrentsmd.com:8080/scrape.php000
http://scrape.torrentsmd.com:8080/scrape000
http://fr33dom.h33t.com:3310/scrape000
http://coppersurfer.tk:6969/scrape000
http://tracker.coppersurfer.tk:6969/scrape000
http://bigfoot1942.sektori.org:6969/scrape000
http://tracker.ex.ua/scrape000
http://tracker.ex.ua:80/scrape000
http://tracker.tfile.me/scrape000
http://i.bandito.org/scrape000
http://94.228.192.98/scrape000
http://greenlietracker.appspot.com/scrape000
http://tracker.marshyonline.net/scrape000
http://calu-atrack.appspot.com/scrape000
http://bt.home-ix.ru.nyud.net/scrape000
http://bttrack.9you.com/scrape000
http://121.14.98.151:9090/scrape001
http://bt.home-ix.ru/scrape.php000
http://7ece.co.uk:6969/scrape000
http://bt.home-ix.ru.nyud.net/scrape.php000
http://bt.home-ix.ru/scrape000
http://calu-atrack.appspot.com.nyud.net/scrape000
http://exodus.desync.com/scrape000
http://tracker.torrent.to:2710/scrape000
http://exodus.desync.com:6969/scrape000
http://94.228.192.98.nyud.net/scrape000
http://bt.poletracker.org:2710/scrape000
http://bt.careland.com.cn:6969/scrape000
Report this torrent
We will carefully monitor this report and react whenever possible.
Thanks for helping us in filtering out bad content and improving TorrentReactor for every other visitor!
Please login or register to be able to report torrents.

Your comment

Please Login or register to be able to add comments.

All comments

No one has added a comment yet. Be the first one.

Related movies

Search for full movies The Internship 2013 TS LiNE XviD RiPRG, related to The Internship 2013 TS LiNE XviD RiPRG