Now You See Me 2013 DVDRip XviD EXViD

Fake torrent

Now You See Me 2013 DVDRip XviD EXViD

Total size: 695.07 Mb Seeds 0 Leechs 4
Now You See Me 2013 DVDRip XviD EXViD

Format                                   : MPEG-4
File size                                : 697 MiB
Duration                                 : 1h 21mn
Overall bit rate                         : 1 195 Kbps
Writing library                          : VirtualDub build 32842/release

Video
ID                                       : 0
Format                                   : MPEG-4 Visual
Format profile                           : Advanced Simple@L5
Format settings, BVOP                    : 2
Format settings, QPel                    : No
Format settings, GMC                     : No warppoints
Format settings, Matrix                  : Default (H.263)
Muxing mode                              : Packed bitstream
Codec ID                                 : XVID
Codec ID/Hint                            : XviD
Duration                                 : 1h 21mn
Bit rate                                 : 1 057 Kbps
Width                                    : 640 pixels
Height                                   : 272 pixels
Display aspect ratio                     : 2.35:1
Frame rate                               : 23.976 fps
Color space                              : YUV
Chroma subsampling                       : 4:2:0
Bit depth                                : 8 bits
Scan type                                : Progressive
Compression mode                         : Lossy
Bits/(Pixel*Frame)                       : 0.253
Stream size                              : 617 MiB (88%)
Writing library                          : XviD 64

Audio
ID                                       : 1
Format                                   : MPEG Audio
Format version                           : Version 1
Format profile                           : Layer 3
Codec ID                                 : 55
Codec ID/Hint                            : MP3
Duration                                 : 1h 21mn
Bit rate mode                            : Constant
Bit rate                                 : 128 Kbps
Channel(s)                               : 2 channels
Sampling rate                            : 44.1 KHz
Compression mode                         : Lossy
Stream size                              : 74.7 MiB (11%)
Alignment                                : Split accross interleaves
Interleave, duration                     : 42 ms (1.00 video frame)
Interleave, preload duration             : 500 ms
Writing library                          : LAME3.99r
Encoding settings                        : -m s -V 4 -q 3 -lowpass 17 -b 128
FileSize
Now You See Me.2013.DVDRip.XviD-EXViD/subtitles/English/subtitles.srt46.43 Kb
Now You See Me.2013.DVDRip.XviD-EXViD/subtitles/NL/subtitles.srt69.51 Kb
Now You See Me.2013.DVDRip.XviD-EXViD/subtitles/Polish/subtitles.srt31.13 Kb
Now You See Me.2013.DVDRip.XviD-EXViD/Now You See Me.wmv694.91 Mb
Now You See Me.2013.DVDRip.XviD-EXViD/READ this before playing the Video.txt5.97 Kb
Now You See Me.2013.DVDRip.XviD-EXViD/info.nfo5.97 Kb
TrackerSeedsLeechsDownloaded
udp://tracker.publicbt.com:80/scrape010
udp://tracker.openbittorrent.com:80/anno­unce/scrape010
http://ccc.ddns.us/tracker/scrape.php000
http://tracker.istole.it/scrape000
http://www.h33t.com:3310/scrape000
http://bigtorrent.org:2710/scrape000
http://tracker.coppersurfer.tk:6969/a.../scrape000
http://coppersurfer.tk:6969/scrape020
http://bttrack.9you.com/:8080/scrape000
http://exodus.desync.com/scrape000
http://r165.server.lu:6969/scrape000
http://tracker.publichd.eu:80/scrape000
http://tracker.yify-torrents.com/anno.../scrape000
Report this torrent
We will carefully monitor this report and react whenever possible.
Thanks for helping us in filtering out bad content and improving TorrentReactor for every other visitor!
Please login or register to be able to report torrents.

Your comment

Please Login or register to be able to add comments.

All comments

No one has added a comment yet. Be the first one.

Related movies

Search for full movies Now You See Me 2013 DVDRip XviD EXViD, related to Now You See Me 2013 DVDRip XviD EXViD