Download Fast and Furious 5 Fast Five [2011] torrent
Suspicious
Needs verification

Fast and Furious 5 Fast Five [2011] torrent

Total size: 1.29 Gb Seeds 0 Leechs 0
Fast and Furious 5 Fast Five [2011]
Fast and Furious 5 Fast Five (2011) DVDRip XviD

http://www.imdb.com/title/tt1596343/

Format                           : AVI
Format/Info                      : Audio Video Interleave
Format profile                   : OpenDML
File size                        : 1.31 GiB
Duration                         : 2h 10mn
Overall bit rate                 : 1 500 Kbps
Movie name                       : Fast Five (2011)
Writing application              : VirtualDubMod 1.5.10.2 (build 2542/release)
Writing library                  : VirtualDubMod build 2542/release

Video
ID                               : 0
Format                           : MPEG-4 Visual
Format profile                   : AdvancedSimple@L5
Format settings, BVOP            : Yes
Format settings, QPel            : No
Format settings, GMC             : No warppoints
Format settings, Matrix          : Custom
Codec ID                         : XVID
Codec ID/Hint                    : XviD
Duration                         : 2h 10mn
Bit rate                         : 1 047 Kbps
Width                            : 720 pixels
Height                           : 304 pixels
Display aspect ratio             : 2.35:1
Frame rate                       : 23.976 fps
Resolution                       : 24 bits
Colorimetry                      : 4:2:0
Scan type                        : Progressive
Bits/(Pixel*Frame)               : 0.199
Stream size                      : 976 MiB (70%)
Writing library                  : XviD 58

Audio
ID                               : 1
Format                           : AC-3
Format/Info                      : Audio Coding 3
Codec ID                         : 2000
Duration                         : 2h 10mn
Bit rate mode                    : Constant
Bit rate                         : 448 Kbps
Channel(s)                       : 6 channels
Channel positions                : Front: L C R, Surround: L R, LFE
Sampling rate                    : 48.0 KHz
Stream size                      : 418 MiB (30%)
Alignment                        : Aligned on interleaves
Interleave, duration             : 64 ms (1.53 video frames)
Interleave, preload duration     : 192 ms
 
Screens:

http://www.postimg.com/image/45000/photo-44609.jpg
 
http://www.postimg.com/image/45000/photo-44610.jpg
 
http://www.postimg.com/image/45000/photo-44611.jpg
 
http://www.postimg.com/image/45000/photo-44612.jpg
FileSize
Fast and Furious 5 Fast Five [2011]/Fast and Furious 5 Fast Five [2011] _DVDRip _XviD.avi1.29 Gb
TrackerSeedsLeechsDownloaded
udp://tracker.openbittorrent.com:80/scrape000
udp://tracker.istole.it:80/scrape000
udp://tracker.publicbt.com:80/scrape000
udp://9.rarbg.com:2710/scrape000
http://www.h33t.com:3310/scrape000
http://exodus.desync.com:6969/scrape000
Report this torrent
We will carefully monitor this report and react whenever possible.
Thanks for helping us in filtering out bad content and improving TorrentReactor for every other visitor!
Please login or register to be able to report torrents.

Your comment
Please Login or register to be able to add comments.
All comments

No one has added a comment yet. Be the first one.

Related torrents
Fast and Furious 5 Fast Five [2011], related to Fast and Furious 5 Fast Five [2011]