English

Verified torrent

The Hangover Part 3 2013 TS Xvid Mp3-SUFFiCE

Total size: 1.25 Gb Seeds 10145 Leechs 2147
The Hangover Part 3 2013 TS Xvid Mp3-SUFFiCE
 http://www.imdb.com/title/tt1951261/


When one of their own is kidnapped by an angry gangster, the Wolf Pack must track down Mr. Chow, who has escaped from prison and is on the lam. 



Director:
 Todd Phillips 

Writers:
 Todd Phillips, Craig Mazin

Stars:
 Bradley Cooper, Ed Helms, Zach Galifianakis 

Genres:
  Comedy 

Country:
 USA 

Language:
 English 




Format                                   : AVI
Format/Info                              : Audio Video Interleave
File size                                : 1.22 GiB
Duration                                 : 1h 34mn
Overall bit rate                         : 1 833 Kbps
Writing application                      : VirtualDubMod 1.5.10.2 (build 2540/release)
Writing library                          : VirtualDubMod build 2540/release

Video
ID                                       : 0
Format                                   : MPEG-4 Visual
Format profile                           : Advanced Simple@L5
Format settings, BVOP                    : 2
Format settings, QPel                    : No
Format settings, GMC                     : No warppoints
Format settings, Matrix                  : Default (H.263)
Muxing mode                              : Packed bitstream
Codec ID                                 : XVID
Codec ID/Hint                            : XviD
Duration                                 : 1h 34mn
Bit rate                                 : 1 695 Kbps
Width                                    : 720 pixels
Height                                   : 274 pixels
Display aspect ratio                     : 2.628
Frame rate                               : 25.857 fps
Color space                              : YUV
Chroma subsampling                       : 4:2:0
Bit depth                                : 8 bits
Scan type                                : Progressive
Compression mode                         : Lossy
Bits/(Pixel*Frame)                       : 0.332
Stream size                              : 1.12 GiB (92%)
Writing library                          : XviD 64

Audio
ID                                       : 1
Format                                   : MPEG Audio
Format version                           : Version 1
Format profile                           : Layer 3
Mode                                     : Joint stereo
Mode extension                           : MS Stereo
Codec ID                                 : 55
Codec ID/Hint                            : MP3
Duration                                 : 1h 34mn
Bit rate mode                            : Constant
Bit rate                                 : 128 Kbps
Channel(s)                               : 2 channels
Sampling rate                            : 48.0 KHz
Compression mode                         : Lossy
Stream size                              : 86.9 MiB (7%)
Alignment                                : Aligned on interleaves
Interleave, duration                     : 39 ms (1.00 video frame)
Interleave, preload duration             : 504 ms
Writing library                          : LAME3.99r
Encoding settings                        : -m j -V 4 -q 2 -lowpass 17 -b 128




    	http://addpix.net/viewer.php?file=17046179210021087688.jpg
    	http://addpix.net/viewer.php?file=99659268272953071690.jpg
    	http://addpix.net/viewer.php?file=46673079194860634847.jpg
    	http://addpix.net/viewer.php?file=91558331526945597717.jpg
    	http://addpix.net/viewer.php?file=62473248215963115444.jpg		

The Hangover Part 3 2013 TS Xvid Mp3-SUFFiCE

The Hangover Part 3 2013 TS Xvid Mp3-SUFFiCE

The Hangover Part 3 2013 TS Xvid Mp3-SUFFiCE

The Hangover Part 3 2013 TS Xvid Mp3-SUFFiCE

FileSize
The Hangover Part 3 2013 TS Xvid Mp3-SUFFiCE/sample.avi34.88 Mb
The Hangover Part 3 2013 TS Xvid Mp3-SUFFiCE/The Hangover Part 3 2013 TS Xvid Mp3-SUFFiCE.avi1.22 Gb
The Hangover Part 3 2013 TS Xvid Mp3-SUFFiCE/Torrent Downloaded From ExtraTorrent.com.txt353.00 b
TrackerSeedsLeechsDownloaded
udp://tracker.openbittorrent.com:80/scrape129329110
udp://tracker.istole.it:80/scrape210342710
udp://tracker.publicbt.com:80/scrape178636010
udp://ipv4.tracker.harry.lu:80/scrape210342710
udp://9.rarbg.me:2710/scrape1430321275827
udp://9.rarbg.com:2710/scrape1430321275827
http://fr33dom.h33t.com:3310/scrape000
http://tracker.thepiratebay.org/scrape000
http://exodus.desync.com/scrape000
http://exodus.desync.com:6969/scrape000

Report this torrent

We will carefully monitor this report and react whenever possible.
Thanks for helping us in filtering out bad content and improving TorrentReactor for every other visitor!
Please login or register to be able to report torrents.

Your comment

Please Login or register to be able to add comments.

All comments

No one has added a comment yet. Be the first one.

Related torrents

The Hangover Part 3 2013 TS Xvid Mp3-SUFFiCE, related to The Hangover Part 3 2013 TS Xvid Mp3-SUFFiCE