The Doberman Gang (1972) torrent

Total size: 1.09 Gb Seeds 5 Leechs 3
							he Doberman Gang is a 1972 film about a talented animal trainer who uses a pack of Dobermans to commit a bank robbery. The six dogs were all named after famous bank robbers. Their names were Dillinger (John Dillinger), Bonnie (Bonnie Parker), Clyde (Clyde Barrow), Pretty Boy Floyd, Baby Face Nelson, and Ma Barker.
Format : AVI
Format/Info : Audio Video Interleave
File size : 1.09 GiB
Duration : 1h 26mn
Overall bit rate mode : Variable
Overall bit rate : 1 814 Kbps
Writing application : VirtualDubMod 1.5.4.1 (build 2178/release)
Writing library : VirtualDubMod build 2178/release
ID : 0
Format : MPEG-4 Visual
Format profile : Advanced Simple@L5
Format settings, BVOP : 1
Format settings, QPel : No
Format settings, GMC : No warppoints
Format settings, Matrix : Custom
Codec ID : XVID
Codec ID/Hint : XviD
Duration : 1h 26mn
Bit rate : 1 556 Kbps
Width : 512 pixels
Height : 384 pixels
Display aspect ratio : 4:3
Frame rate : 29.970 fps
Color space : YUV
Chroma subsampling : 4:2:0
Bit depth : 8 bits
Scan type : Progressive
Compression mode : Lossy
Bits/(Pixel*Frame) : 0.264
Stream size : 959 MiB (86%)
Writing library : XviD 1.2.0.dev47 (UTC 2006-11-01)
ID : 1
Format : MPEG Audio
Format version : Version 1
Format profile : Layer 3
Mode : Joint stereo
Codec ID : 55
Codec ID/Hint : MP3
Duration : 1h 26mn
Bit rate mode : Variable
Bit rate : 244 Kbps
Channel(s) : 2 channels
Sampling rate : 48.0 KHz
Compression mode : Lossy
Stream size : 151 MiB (13%)
Alignment : Aligned on interleaves
Interleave, duration : 24 ms (0.72 video frame)
Interleave, preload duration : 512 ms
Writing library : LAME3.97 
Encoding settings : -m j -V 4 -q 2 -lowpass 19.7 --abr
FileSize
The Doberman Gang (1972)/The Doberman Gang (1972).avi1.09 Gb
The Doberman Gang (1972)/The Doberman Gang (1972).avi.jpg1.55 Mb
TrackerSeedsLeechsDownloaded
udp://tracker.publicbt.com:80/scrape3310
udp://tracker.openbittorrent.com:80/scrape207
http://getyourpopcorn.net:2711/scrape000
http://10.rarbg.com/scrape000
http://pow7.com/scrape000
http://t1.pow7.com/scrape000
Report this torrent
We will carefully monitor this report and react whenever possible.
Thanks for helping us in filtering out bad content and improving TorrentReactor for every other visitor!
Please login or register to be able to report torrents.

Your comment
Please Login or register to be able to add comments.
All comments

No one has added a comment yet. Be the first one.

Related torrents
The Doberman Gang (1972), related to The Doberman Gang (1972)