Download La Vie d'Adèle 2013 FRENCH DVDRiP XViD - RIPPETOUT torrent

Fake torrent

La Vie d'Adèle 2013 FRENCH DVDRiP XViD - RIPPETOUT torrent

Total size: 698.54 Mb Seeds 4 Leechs 0
La Vie d'Adèle 2013 FRENCH DVDRiP XViD - RIPPETOUT
La Vie d'Adele 2013 FRENCH DVDRiP XViD - RIPPETOUT

[IMG]http://i.imgur.com/ZofB2mU.png[/IMG]

IMDB Link: 

http://www.imdb.com/title/tt2278871/

Un film d'Abdellatif Kechiche avec Léa Seydoux et Adele Exarchopoulos

Genre : Drame - Duree : 2h 55min
Format : AVI
Format/Info : Audio Video Interleave
Format profile : OpenDML
Format settings : rec
Overall bit rate : 1 651 Kbps
Writing application : VirtualDubMod 1.5.10.2 (build 2542/release)
Writing library : VirtualDubMod build 2542/release

.
Video
ID : 0
Format : MPEG-4 Visual
Format profile : Advanced Simple@L5
Format settings, BVOP : 1
Format settings, QPel : No
Format settings, GMC : No warppoints
Format settings, Matrix : Custom
Codec ID : XVID
Codec ID/Hint : XviD
Bit rate : 1 454 Kbps
Width : 720 pixels
Height : 304 pixels
Display aspect ratio : 2.35:1
Frame rate : 23.976 fps
Color space : YUV
Chroma subsampling : 4:2:0
Bit depth : 8 bits
Scan type : Progressive
Compression mode : Lossy
Bits/(Pixel*Frame) : 0.277
Stream size : 614 MiB (88%)
Writing library : XviD 1.2.1 (UTC 2008-12-04)
.
Audio
ID : 1
Format : AC-3
Format/Info : Audio Coding 3
Mode extension : CM (complete main)
Format settings, Endianness : Big
Codec ID : 2000
Bit rate mode : Constant
Bit rate : 192 Kbps
Channel(s) : 2 channels
Channel positions : Front: L R
Sampling rate : 48.0 KHz
Bit depth : 16 bits
Compression mode : Lossy
Stream size : 84 MiB (12%)
Alignment : Aligned on interleaves
Interleave, duration : 64 ms (1.53 video frames)
Interleave, preload duration : 192 ms

SCREENS:

[IMG]http://i.imgur.com/Cr3cLUL.jpg[/IMG]
[IMG]http://i.imgur.com/RCoHDuL.jpg[/IMG]
[IMG]http://i.imgur.com/GpqFwKg.jpg[/IMG]
FileSize
La Vie d'Adèle 2013 FRENCH DVDRiP XViD - RIPPETOUT/cover.jpg386.86 Kb
La Vie d'Adèle 2013 FRENCH DVDRiP XViD - RIPPETOUT/La Vie d'Adèle 2013 FRENCH DVDRiP XViD - RIPPETOUT.nfo1.68 Kb
La Vie d'Adèle 2013 FRENCH DVDRiP XViD - RIPPETOUT/La Vie d'Adèle 2013 FRENCH DVDRiP XViD - RIPPETOUT.rar698.00 Mb
La Vie d'Adèle 2013 FRENCH DVDRiP XViD - RIPPETOUT/Screenshot01.JPG51.13 Kb
La Vie d'Adèle 2013 FRENCH DVDRiP XViD - RIPPETOUT/Screenshot02.JPG59.60 Kb
La Vie d'Adèle 2013 FRENCH DVDRiP XViD - RIPPETOUT/Screenshot03.JPG52.13 Kb
TrackerSeedsLeechsDownloaded
udp://tracker.publicbt.com:80/scrape1010
udp://tracker.openbittorrent.com:80/scrape107
http://exodus.desync.com:6969/scrape209
http://cpleft.com:2710/scrape000
Report this torrent
We will carefully monitor this report and react whenever possible.
Thanks for helping us in filtering out bad content and improving TorrentReactor for every other visitor!
Please login or register to be able to report torrents.

Your comment
Please Login or register to be able to add comments.
All comments

No one has added a comment yet. Be the first one.

Related torrents
La Vie d'Adèle 2013 FRENCH DVDRiP XViD - RIPPETOUT, related to La Vie d'Adèle 2013 FRENCH DVDRiP XViD - RIPPETOUT