English
Suspicious
Needs verification

Go Goa Gone.2013.DVDrip.HD.torrent

Total size: 720.89 Mb Seeds 0 Leechs 0
Go Goa Gone.2013.DVDrip.HD.torrent
Format                           : AVI
Format/Info                      : Audio Video Interleave
Format profile                   : OpenDML
Overall bit rate                 : 1 800 Kbps
Writing application              : VirtualDubMod 1.5.10.2 (build 2542/release)
Writing library                  : VirtualDubMod build 2542/release

[b]Video[/b]
Format                           : MPEG-4 Visual
Format settings, BVOP            : Yes
Format settings, QPel            : No
Format settings, Matrix          : Default (MPEG)
Codec ID                         : XVID
Codec ID/Hint                    : XviD
Bit rate                         : 1 411 Kbps
Width                            : 640 pixels
Height                           : 272 pixels
Display aspect ratio             : 2.35:1
Frame rate                       : 23.976 fps
Resolution                       : 24 bits
Colorimetry                      : 4:2:0
Scan type                        : Progressive
Bits/(Pixel*Frame)               : 0.338
Stream size                      : 1.03 GiB (78%)

[b]Audio[/b]
Format                           : AC-3
Format/Info                      : Audio Coding 3
Codec ID                         : 2000
Bit rate mode                    : Constant
Bit rate                         : 384 Kbps
Channel(s)                       : 6 channels
Channel positions                : Front: L C R, Surround: L R, LFE
Sampling rate                    : 48.0 KHz
Stream size                      : 287 MiB (21%)
Alignment                        : Aligned on interleaves
Interleave, duration             : 64 ms (1.53 video frames)
Interleave, preload duration     : 192 ms
FileSize
Go Goa Gone.2013.DVDrip.HD/Torrent Downloaded From downloadhindimovies.in.txt477.00 b
Go Goa Gone.2013.DVDrip.HD/Torrent downloaded from h33t.com.txt477.00 b
Go Goa Gone.2013.DVDrip.HD/Dmt Nfo.txt477.00 b
Go Goa Gone.2013.DVDrip.HD/Go Goa Gone.2013.DVDrip.HD.nfo1.00 Mb
Go Goa Gone.2013.DVDrip.HD/Go Goa Gone.2013.DVDrip.HD.avi10.00 Mb
Go Goa Gone.2013.DVDrip.HD/Go Goa Gone.2013.DVDrip.HD.jpeg1.00 Mb
Go Goa Gone.2013.DVDrip.HD/Go Goa Gone.2013.DVDrip.HD/Go Goa Gone.2013.DVDrip.HD.rar708.89 Mb

Trackers not found

Report this torrent

We will carefully monitor this report and react whenever possible.
Thanks for helping us in filtering out bad content and improving TorrentReactor for every other visitor!
Please login or register to be able to report torrents.

Your comment

Please Login or register to be able to add comments.

All comments

No one has added a comment yet. Be the first one.

Related torrents

Go Goa Gone.2013.DVDrip.HD.torrent, related to Go Goa Gone.2013.DVDrip.HD.torrent