Download Selena Gomez - Come & Get It [Music Video] 1080p [Sbyky].mp4 torrent

Selena Gomez - Come & Get It [Music Video] 1080p [Sbyky].mp4 torrent

Total size: 131.79 Mb Seeds 51 Leechs 0
General
Complete name : Selena Gomez - Come & Get It [Music Video] 1080p [Sbyky].mp4
Format : MPEG-4
Format profile : Base Media / Version 2
Codec ID : mp42
File size : 132 MiB
Duration : 4mn 49s
Overall bit rate mode : Variable
Overall bit rate : 3 821 Kbps
Encoded date : UTC 2013-05-02 02:17:13
Tagged date : UTC 2013-05-02 02:17:13
Video
ID : 1
Format : AVC
Format/Info : Advanced Video Codec
Format profile : [email protected]
/*  */

Format settings, CABAC : Yes
Format settings, ReFrames : 1 frame
Codec ID : avc1
Codec ID/Info : Advanced Video Coding
Duration : 4mn 49s
Bit rate : 3 626 Kbps
Maximum bit rate : 8 746 Kbps
Width : 1 920 pixels
Height : 1 080 pixels
Display aspect ratio : 16:9
Frame rate mode : Constant
Frame rate : 23.976 fps
Color space : YUV
Chroma subsampling : 4:2:0
Bit depth : 8 bits
Scan type : Progressive
Bits/(Pixel*Frame) : 0.073
Stream size : 125 MiB (95%)
Tagged date : UTC 2013-05-02 02:17:32
Audio
ID : 2
Format : AAC
Format/Info : Advanced Audio Codec
Format profile : LC
Codec ID : 40
Duration : 4mn 49s
Bit rate mode : Variable
Bit rate : 192 Kbps
Maximum bit rate : 201 Kbps
Channel(s) : 2 channels
Channel positions : Front: L R
Sampling rate : 44.1 KHz
Compression mode : Lossy
Stream size : 6.62 MiB (5%)
Title : IsoMedia File Produced by Google, 5-11-2011
Encoded date : UTC 2013-05-02 02:17:25
Tagged date : UTC 2013-05-02 02:17:32
Shared By Sbyky
FileSize
Selena Gomez - Come & Get It [Music Video] 1080p [Sbyky].mp4131.79 Mb
TrackerSeedsLeechsDownloaded
udp://tracker.openbittorrent.com:80/scrape12010
udp://tracker.istole.it:80/scrape20010
udp://tracker.publicbt.com:80/scrape19010
http://fr33dom.h33t.com:3310/scrape000
Report this torrent
We will carefully monitor this report and react whenever possible.
Thanks for helping us in filtering out bad content and improving TorrentReactor for every other visitor!
Please login or register to be able to report torrents.

Your comment
Please Login or register to be able to add comments.
All comments

No one has added a comment yet. Be the first one.

Related torrents
Selena Gomez - Come & Get It [Music Video] 1080p [Sbyky].mp4, related to Selena Gomez - Come & Get It [Music Video] 1080p [Sbyky].mp4