The Legends of Nethiah 2012 WEBRip XViD juggs

The Legends of Nethiah 2012 WEBRip XViD juggs

Total size: 708.71 Mb
Removed by the request of copyright owner

  • Category
  • Added
    on 2013-04-23 23:16:42
  • Hash
    6e465cedeafa7159606149808c68deedb16d3a88
Source :NGB(Thanks)
 
http://www.imdb.com/title/tt1296172/


Format                                   : AVI
Format/Info                              : Audio Video Interleave
File size                                : 701 MiB
Duration                                 : 1h 32mn
Overall bit rate                         : 1 063 Kbps
Writing library                          : VirtualDub build 32842/release

Video
ID                                       : 0
Format                                   : MPEG-4 Visual
Format profile                           : Advanced Simple@L5
Format settings, BVOP                    : 2
Format settings, QPel                    : No
Format settings, GMC                     : No warppoints
Format settings, Matrix                  : Default (H.263)
Muxing mode                              : Packed bitstream
Codec ID                                 : XVID
Codec ID/Hint                            : XviD
Duration                                 : 1h 32mn
Bit rate                                 : 925 Kbps
Width                                    : 640 pixels
Height                                   : 352 pixels
Display aspect ratio                     : 16:9
Frame rate                               : 23.976 fps
Color space                              : YUV
Chroma subsampling                       : 4:2:0
Bit depth                                : 8 bits
Scan type                                : Progressive
Compression mode                         : Lossy
Bits/(Pixel*Frame)                       : 0.171
Stream size                              : 610 MiB (87%)
Writing library                          : XviD 1.2.0.dev47 (UTC 2006-11-01)

Audio
ID                                       : 1
Format                                   : MPEG Audio
Format version                           : Version 1
Format profile                           : Layer 3
Codec ID                                 : 55
Codec ID/Hint                            : MP3
Duration                                 : 1h 32mn
Bit rate mode                            : Constant
Bit rate                                 : 128 Kbps
Channel(s)                               : 2 channels
Sampling rate                            : 44.1 KHz
Compression mode                         : Lossy
Stream size                              : 84.5 MiB (12%)
Alignment                                : Split accross interleaves
Interleave, duration                     : 42 ms (1.00 video frame)
Interleave, preload duration             : 500 ms
Writing library                          : LAME3.99r
Encoding settings                        : -m s -V 4 -q 3 -lowpass 17 -b 128

 
http://s2.postimg.org/hkemw33xl/dale.png 
http://s2.postimg.org/a5pb3pi21/dale1.png 
http://s2.postimg.org/ichava84p/dale2.png		
FileSize
The.Legends.of.Nethiah.2012 WEBRip XViD juggs/The.Legends.of.Nethiah.2012 WEBRip XViD juggs.avi701.07 Mb
The.Legends.of.Nethiah.2012 WEBRip XViD juggs/Torrent Downloaded From ExtraTorrent.com.txt339.00 b
The.Legends.of.Nethiah.2012 WEBRip XViD juggs/sample.avi7.64 Mb
TrackerSeedsLeechsDownloaded
udp://tracker.openbittorrent.com:80/scrape1210
udp://tracker.publicbt.com:80/scrape1110
udp://ipv4.tracker.harry.lu:80/scrape1110
udp://9.rarbg.com:2710/scrape2211
udp://11.rarbg.com:80/scrape1110
http://fr33dom.h33t.com:3310/scrape000
http://tracker.thepiratebay.org/scrape000
http://tracker.ex.ua/scrape1210

It's removed by the request of copyright owner, but we have tons of cool stuff like this:

Search for full movies The Legends of Nethiah 2012 UNRATED WEBRip XviD FAN0N, related to The Legends of Nethiah 2012 UNRATED WEBRip XviD FAN0N