Download The Lords of Salem 2012 720p BRRip XviD MAXSPEED torrent

Fake torrent

The Lords of Salem 2012 720p BRRip XviD MAXSPEED torrent

Total size: 705.02 Mb Seeds 0 Leechs 0
The Lords of Salem 2012 720p BRRip XviD MAXSPEED
TITLE:

The Lords of Salem (2012) 720p BRRip XviD MAXSPEED




SOURCES:

VIDEO   -  NEW SOURCE and UNKNOWN THANKS
AUDIO   -  ADTRG THANKS
SUBS    -  ENG WHEN NEEDED
IMDb ID - http://www.imdb.com/title/tt1731697

Genre : Horror | Thriller 


STATS:

video				 : mkv
ID                               : 0
Format                           : MPEG-4 Visual
Format profile                   : Advanced Simple@L5
Format settings, BVOP            : 2
Format settings, QPel            : No
Format settings, GMC             : No warppoints
Format settings, Matrix          : Default (MPEG)
Muxing mode                      : Packed bitstream
Codec ID                         : XVID
Codec ID/Hint                    : XviD
Duration                         : 1h 41mn
Bit rate                         : 2 511 Kbps
Width                            : 720 pixels
Height                           : 456 pixels
Display aspect ratio             : 2.500
Frame rate                       : 29.970 fps
Color space                      : YUV
Chroma subsampling               : 4:2:0
Bit depth                        : 8 bits
Scan type                        : Progressive
Compression mode                 : Lossy
Bits/(Pixel*Frame)               : 0.404
Stream size                      : 1.28 GiB (95%)
Writing library                  : XviD 64

Audio
ID                               : 1
Format                           : MPEG Audio
Format version                   : Version 1
Format profile                   : Layer 3
Mode                             : Joint stereo
Mode extension                   : MS Stereo
Codec ID                         : 55
Codec ID/Hint                    : MP3
Duration                         : 1h 41mn
Bit rate mode                    : Constant
Bit rate                         : 128 Kbps
Channel(s)                       : 2 channels
Sampling rate                    : 48.0 KHz
Compression mode                 : Lossy
Stream size                      : 66.7 MiB (5%)
Alignment                        : Split accross interleaves
Interleave, duration             : 33 ms (1.00 video frame)
Interleave, preload duration     : 500 ms
FileSize
The Lords of Salem (2012) 720p BRRip XviD MAXSPEED/The Lords of Salem (2012) 720p BRRip XviD MAXSPEED/Sample/The Lords of Salem (2012) 720p BRRip XviD MAXSPEED.Sample.mp45.69 Mb
The Lords of Salem (2012) 720p BRRip XviD MAXSPEED/The Lords of Salem (2012) 720p BRRip XviD MAXSPEED/The Lords of Salem (2012) 720p BRRip XviD MAXSPEED.rar699.34 Mb
The Lords of Salem (2012) 720p BRRip XviD MAXSPEED/The Lords of Salem (2012) 720p BRRip XviD MAXSPEED/Torrent downloaded from Demonoid.me.txt691.00 b
TrackerSeedsLeechsDownloaded
udp://tracker.openbittorrent.com:80/scrape0010
udp://tracker.tntvillage.scambioetico.org:2710/scrape000
udp://tracker.istole.it:80/scrape000
udp://9.rarbg.com:2710/scrape0019
udp://tracker.publicbt.com:80/scrape000
udp://fr33domtracker.h33t.com:3310/scrape000
udp://tracker.openbittorrent.com/scrape0010
http://ipv4.tracker.harry.lu/scrape000
http://tracker.ccc.de/scrape000
http://tracker.publicbt.com0/scrape000
http://tracker.istole.it:80/scrape000
http://publicbt.ath.cx/scrape000
http://tracker.ccc.de:80/scrape000
http://ipv6.tracker.harry.lu/scrape000
http://tracker.csze.com:80/scrape000
http://tracker.publicbt.org:80/scrape000
http://tracker1.publicbt.com:80/scrape000
http://torrentbay.to:6969/scrape000
http://retracker.hotplug.ru:2710/scrape000
http://www.th0r1n.com/scrape000
http://torrent-downloads.to:5869/scrape000
http://scrape.torrentsmd.com:8080/scrape.php000
http://scrape.torrentsmd.com:8080/scrape000
http://open.nyaatorrents.info:6544/scrape000
http://tracker.coppersurfer.tk:6969/scrape000
http://www.h33t.com:3310/scrape000
http://www.deviloid.net:55000/scrape000
http://fr33dom.h33t.com:3310/scrape000
http://tracker.hexagon.cc:2710/scrape000
http://memtracker.appspot.com/scrape000
http://tracker.hdcmct.com:2710/scrape000
http://php.hdcmct.com:2710/scrape000
http://61.154.116.205:8000/scrape000
http://exodus.desync.com:6969/scrape000
http://tracker.ex.ua/scrape000
http://tracker.publicbt.com/scrape000
http://tracker.novalayer.org:6969/scrape000
http://tracker.torrentbay.to:6969/scrape000
http://cpleft.com:2710/scrape000
http://atrack.pow7.com/scrape000
http://eztv.tracker.prq.to/scrape000
http://tracker.publicbt.com:80/scrape000
http://pow7.com/scrape000
http://exodus.desync.com/scrape000
http://bt.rghost.net:80/scrape000
http://tracker.blazing.de:80/scrape000
http://tracker.ilibr.org:6969/scrape000
http://tracker.pow7.com:80/scrape000
http://10.rarbg.com:80/scrape000
http://tracker.prq.to:80/scrape000
http://tracker.token.ro:80/scrape000
http://pow7.com:80/scrape000
http://t1.pow7.com:80/scrape000
http://tracker.ilibr.org:80/scrape000
http://tracker.prq.to:6969/scrape000
http://t2.pow7.com/scrape000
http://tracker.1337x.org/scrape000
http://retracker.kld.ru/scrape000
http://scrape.xxx-tracker.com:2710/scrape000
http://t1.pow7.com/scrape000
http://secure.pow7.com/scrape000
http://tracker.prq.to/scrape000
http://tv.tracker.prq.to:80/scrape.php000
http://bt.home-ix.ru/scrape000
http://ix3.rutracker.net/scrape000
http://10.rarbg.com/scrape000
http://tracker.blazing.de:6969/scrape000
http://tracker.prq.to:80/scrape.php000
http://tpb.tracker.prq.to:80/scrape.php000
http://red.tracker.prq.to:80/scrape000
http://tv.tracker.prq.to:80/scrape000
Report this torrent
We will carefully monitor this report and react whenever possible.
Thanks for helping us in filtering out bad content and improving TorrentReactor for every other visitor!
Please login or register to be able to report torrents.

Your comment

Please Login or register to be able to add comments.

All comments

No one has added a comment yet. Be the first one.

Related torrents

The Lords of Salem 2012 720p BRRip XviD MAXSPEED, related to The Lords of Salem 2012 720p BRRip XviD MAXSPEED