English

Fake torrent

Jack the Giant Slayer.2013.DVDRip-RZR

Total size: 730.34 Mb Seeds 0 Leechs 0
Jack the Giant Slayer.2013.DVDRip-RZR
    
                                                                                  
                                                                                   
                   Jack the Giant Slayer.2013.DVDRip-RZR                            
                                                                                   
                                                                                  
     
                                                                                               

 http://www.imdb.com/title/tt1351685/?ref_=sr_1
Subtitles: EN, NL FD
Date: 21.02.2013

The ancient war between humans and a race of giants is reignited when Jack, a young farmhand fighting for a kingdom and the love of a princess, opens a gateway between the two worlds.

Director: Bryan Singer
Writers: Darren Lemke (screenplay), Christopher McQuarrie (screenplay)
Stars: Nicholas Hoult, Stanley Tucci, Ewan McGregor


Stats:
Format                           : AVI
Format/Info                      : Audio Video Interleave
File size                        : 701 MiB
Duration                         : 1h 54mn
Overall bit rate                 : 913 Kbps
Writing application              : VirtualDubMod 1.5.10.2 (build 2540/release)
Writing library                  : VirtualDubMod build 2540/release

Video
ID                               : 0
Format                           : MPEG-4 Visual
Format profile                   : Advanced Simple@L5
Format settings, BVOP            : Yes
Format settings, QPel            : No
Format settings, GMC             : No warppoints
Format settings, Matrix          : Default (H.263)
Muxing mode                      : Packed bitstream
Codec ID                         : XVID
Codec ID/Hint                    : XviD
Duration                         : 1h 54mn
Bit rate                         : 779 Kbps
Width                            : 624 pixels
Height                           : 256 pixels
Display aspect ratio             : 2.40:1
Frame rate                       : 25.000 fps
Color space                      : YUV
Chroma subsampling               : 4:2:0
Bit depth                        : 8 bits
Scan type                        : Progressive
Bits/(Pixel*Frame)               : 0.195
Stream size                      : 598 MiB (85%)
Writing library                  : XviD 64

Audio
ID                               : 1
Format                           : MPEG Audio
Format version                   : Version 1
Format profile                   : Layer 3
Mode                             : Joint stereo
Codec ID                         : 55
Codec ID/Hint                    : MP3
Duration                         : 1h 54mn
Bit rate mode                    : Variable
Bit rate                         : 121 Kbps
Minimum bit rate                 : 128 Kbps
Channel(s)                       : 2 channels
Sampling rate                    : 48.0 KHz
Stream size                      : 92.9 MiB (13%)
Alignment                        : Aligned on interleaves
Interleave, duration             : 24 ms (0.60 video frame)
Interleave, preload duration     : 518 ms
Writing library                  : LAME4.0a
Encoding settings                : -m j -V 4 -q 5 -lowpass 17.5 --vbr-old -b 128




Release notes:
enjoy!-------------------------------------Torrent downloaded from http://thepiratebay.se
FileSize
Jack the Giant Slayer.2013.DVDRip-RZR/covers/cover (2).jpg266.12 Kb
Jack the Giant Slayer.2013.DVDRip-RZR/covers/cover.jpg13.09 Kb
Jack the Giant Slayer.2013.DVDRip-RZR/Jack the Giant Slayer.2013.DVDRip-RZR.nfo7.02 Kb
Jack the Giant Slayer.2013.DVDRip-RZR/Jack the Giant Slayer.2013.DVDRip-RZR.rar701.04 Mb
Jack the Giant Slayer.2013.DVDRip-RZR/sample.avi29.03 Mb
TrackerSeedsLeechsDownloaded
udp://tracker.openbittorrent.com:80/scrape000
udp://tracker.publicbt.com:80/scrape000
http://tracker.thepiratebay.org/scrape000

Report this torrent

We will carefully monitor this report and react whenever possible.
Thanks for helping us in filtering out bad content and improving TorrentReactor for every other visitor!
Please login or register to be able to report torrents.

Your comment

Please Login or register to be able to add comments.

All comments

No one has added a comment yet. Be the first one.

Related torrents

Jack the Giant Slayer.2013.DVDRip-RZR, related to Jack the Giant Slayer.2013.DVDRip-RZR