Small Apartments 2012 DVDRip XviD juggs

Small Apartments 2012 DVDRip XviD juggs

Total size: 711.19 Mb
Removed by the request of copyright owner

							
Format : AVI
Format/Info : Audio Video Interleave
File size : 702 MiB
Duration : 1h 36mn
Overall bit rate : 1 022 Kbps
Writing library : VirtualDub build 32842/release
Video
ID : 0
Format : MPEG-4 Visual
Format profile : Advanced Simple@L5
Format settings, BVOP : 4
Format settings, QPel : No
Format settings, GMC : No warppoints
Format settings, Matrix : Default (H.263)
Muxing mode : Packed bitstream
Codec ID : XVID
Codec ID/Hint : XviD
Duration : 1h 36mn
Bit rate : 885 Kbps
Width : 640 pixels
Height : 336 pixels
Display aspect ratio : 1.905
Frame rate : 23.976 fps
Color space : YUV
Chroma subsampling : 4:2:0
Bit depth : 8 bits
Scan type : Progressive
Compression mode : Lossy
Bits/(Pixel*Frame) : 0.172
Stream size : 608 MiB (87%)
Writing library : XviD 64
Audio
ID : 1
Format : MPEG Audio
Format version : Version 1
Format profile : Layer 3
Codec ID : 55
Codec ID/Hint : MP3
Duration : 1h 36mn
Bit rate mode : Constant
Bit rate : 128 Kbps
Channel(s) : 2 channels
Sampling rate : 44.1 KHz
Compression mode : Lossy
Stream size : 87.9 MiB (13%)
Alignment : Split accross interleaves
Interleave, duration : 42 ms (1.00 video frame)
Interleave, preload duration : 500 ms
Writing library : LAME3.99r
Encoding settings : -m s -V 4 -q 3 -lowpass 17 -b 128
Plot
A man is surrounded by strange events and odd neighbors in this adaptation of Chris Millis' novel.
[embed=youtube]http://www.youtube.com/watch?v=-0t_m6khv_A[/embed]
						
FileSize
Small Apartments 2012 DVDRip XviD juggs/Sample.avi9.16 Mb
Small Apartments 2012 DVDRip XviD juggs/Small Apartments 2012 DVDRip XviD juggs.avi702.03 Mb
Small Apartments 2012 DVDRip XviD juggs/Torrent Downloaded From ExtraTorrent.com.txt339.00 b
TrackerSeedsLeechsDownloaded
udp://tracker.publicbt.com:80/scrape501610
udp://tracker.openbittorrent.com:80/scrape351210
udp://fr33domtracker.h33t.com:3310/scrape37191046
udp://tracker.istole.it:80/scrape632010
udp://ipv4.tracker.harry.lu:80/scrape632010
udp://9.rarbg.com:2710/scrape282013447
http://fr33dom.h33t.com:3310/scrape37191050
http://exodus.desync.com:6969/scrape000
http://tracker.coppersurfer.tk:6969/scrape000
Search for full movies Small Apartments 2012 iTA ENG AC3 1080p BrRiP x264 TrTd_TeaM, related to Small Apartments 2012 iTA ENG AC3 1080p BrRiP x264 TrTd_TeaM