Fake Agent Lauren HD 1080p

Fake Agent Lauren HD 1080p

Total size: 841.04 Mb
Removed by the request of copyright owner

  • Category
  • Added
    on 2013-02-22 07:27:07
  • Hash
    8a391ca263c678e4710c659830d4c95f1ec16fca
-------------------------------------------------------------------
Please share....Dont hit and run...Seed it back at least once.
Of course, if you want to seed it back more than once, that would be ok too :)
-------------------------------------------------------------------	
QUALITY:  PERFECT 10/10
All details are here: 
Format  | AVI           Language | ENGLISH  
Source  | DVD PAL       Subs     | NONE 
QUALITY:  PERFECT 10/10
- Video
ID                               : 0
Format                           : MPEG-4 Visual
Format profile                   : Advanced Simple@L5
Format settings, BVOP            : Yes
Format settings, QPel            : No
Format settings, GMC             : No warppoints
Format settings, Matrix          : Default (H.263)
Muxing mode                      : Packed bitstream
Codec ID                         : XVID
Codec ID/Hint                    : XviD
Bit rate                         : 1 345 Kbps
Width                            : 720 pixels
Height                           : 314 pixels
Display aspect ratio             : 2.25:1
Frame rate                       : 29.970 fps
Color space                      : YUV
Chroma subsampling               : 4:2:0
Bit depth                        : 8 bits
Scan type                        : Progressive
Compression mode                 : Lossy
Bits/(Pixel*Frame)               : 0.198
Stream size                      : 1.19 GiB (87%)
Writing library                  : XviD 1.1.0 (UTC 2005-11-22)
- Audio
ID                               : 1
Format                           : AC-3
Format/Info                      : Audio Coding 3
Mode extension                   : CM (complete main)
Codec ID                         : 2000
Bit rate mode                    : Constant
Bit rate                         : 192 Kbps
Channel(s)                       : 2 channels
Channel positions                : Front: L R
Sampling rate                    : 48.0 KHz
Bit depth                        : 16 bits
Compression mode                 : Lossy
Stream size                      : 175 MiB (12%)
Alignment                        : Aligned on interleaves
Interleave, duration             : 33 ms (1.00 video frame)
Interleave, preload duration     : 512 ms	
FileSize
Fake Agent - Lauren HD 1080p/ktr.casting.e177.lauren.mov841.04 Mb
TrackerSeedsLeechsDownloaded
http://fr33domtracker.h33t.com:3310/scrape112151
http://www.h33t.com:3310/scrape112151
http://tracker.publicbt.com/scrape000
http://tracker.openbittorrent.com/scrape000
http://tracker.istole.it/scrape000
http://exodus.desync.com:6969/scrape000
http://tracker.1337x.org/scrape000
http://11.rarbg.com/scrape000
http://9.rarbg.me:2710/scrape000
http://9.rarbg.com:2710/scrape000
Search for full movies Fake Agent Lauren HD 1080p, related to Fake Agent Lauren HD 1080p