Warm Bodies 2013 DVDRip_XviD AC3 PGZX

Warm Bodies 2013 DVDRip_XviD AC3 PGZX

Total size: 528.68 Mb Seeds 0 Leechs 0
Warm Bodies 2013 DVDRip_XviD AC3 PGZX
IMDb:  http://www.imdb.com/title/tt1588173/
-------------------------------------------
Warm Bodies (2013) DVDRip_XviD.AC3 - PGZX
-----------------------------------------
Sample................: Yes
Sample Size...........: 15.5 MiB
--------------------------------
Details:
-------
Video
ID                               : 0
Format                           : MPEG-4 Visual
Format profile                   : AdvancedSimple@L5
Format settings, BVOP            : Yes
Format settings, QPel            : No
Format settings, GMC             : No warppoints
Format settings, Matrix          : Custom
Codec ID                         : XVID
Codec ID/Hint                    : XviD
Duration                         : 1h 38mn
Bit rate                         : 1 631 Kbps
Width                            : 720 pixels
Height                           : 480 pixels
Display aspect ratio             : 2.35:1
Frame rate                       : 23.976 fps
Resolution                       : 24 bits
Colorimetry                      : 4:2:0
Scan type                        : Progressive
Bits/(Pixel*Frame)               : 0.311
Stream size                      : 512 MiB (99%)
Writing library                  : XviD 58
Audio
ID                               : 1
Format                           : AC-3
Format/Info                      : Audio Coding 3
Codec ID                         : 2000
Duration                         : 1h 38mn
Bit rate mode                    : Constant
Bit rate                         : 384 Kbps
Channel(s)                       : 6 channels
Channel positions                : Front: L C R, Surround: L R, LFE
Sampling rate                    : 48.0 KHz
Stream size                      : 293 MiB (19%)
Alignment                        : Aligned on interleaves
Interleave, duration             : 64 ms (1.54 video frames)
Interleave, preload duration     : 192 ms
-----------------------------------------
Plot:
----
After R (a highly unusual zombie) saves Julie from an attack, the two 
form a relationship that sets in motion a sequence of events that 
might transform the entire lifeless world.  
-----------------------------------------
Screenshots:
-----------
----------------------------------------------		
FileSize
Warm Bodies (2013) DVDRip_XviD.AC3 - PGZX/1.jpg24.89 Kb
Warm Bodies (2013) DVDRip_XviD.AC3 - PGZX/2.jpg24.81 Kb
Warm Bodies (2013) DVDRip_XviD.AC3 - PGZX/3.jpg27.90 Kb
Warm Bodies (2013) DVDRip_XviD.AC3 - PGZX/4.jpg26.52 Kb
Warm Bodies (2013) DVDRip_XviD.AC3 - PGZX/5.jpg32.19 Kb
Warm Bodies (2013) DVDRip_XviD.AC3 - PGZX/6.jpg32.63 Kb
Warm Bodies (2013) DVDRip_XviD.AC3 - PGZX/7.jpg20.05 Kb
Warm Bodies (2013) DVDRip_XviD.AC3 - PGZX/8.jpg27.80 Kb
Warm Bodies (2013) DVDRip_XviD.AC3 - PGZX/9.jpg19.62 Kb
Warm Bodies (2013) DVDRip_XviD.AC3 - PGZX/Warm Bodies (2013) - Sample.mkv15.52 Mb
Warm Bodies (2013) DVDRip_XviD.AC3 - PGZX/Warm Bodies (2013) DVDRip_XviD/Warm Bodies (2013) DVDRip-XviD.rar512.93 Mb
TrackerSeedsLeechsDownloaded
udp://tracker.publicbt.com:80/scrape000
http://tracker.thepiratebay.org/scrape000
Report this torrent
We will carefully monitor this report and react whenever possible.
Thanks for helping us in filtering out bad content and improving TorrentReactor for every other visitor!
Please login or register to be able to report torrents.

Your comment

Please Login or register to be able to add comments.

All comments

No one has added a comment yet. Be the first one.

Related movies

Search for full movies Warm Bodies 2013 DVDRip_XviD AC3 PGZX, related to Warm Bodies 2013 DVDRip_XviD AC3 PGZX