The Twilight Saga Breaking Dawn Part 2 2012 DVDRip XviD juggs

The Twilight Saga Breaking Dawn Part 2 2012 DVDRip XviD juggs

Total size: 709.03 Mb Seeds 74 Leechs 17
Source : DVDR-AN0NYM0US

Format : AVI
Format/Info : Audio Video Interleave
File size : 703 MiB
Duration : 1h 55mn
Overall bit rate : 853 Kbps
Writing library : VirtualDub build 32842/release

Video
ID : 0
Format : MPEG-4 Visual
Format profile : Advanced Simple@L5
Format settings, BVOP : 4
Format settings, QPel : No
Format settings, GMC : No warppoints
Format settings, Matrix : Default (H.263)
Muxing mode : Packed bitstream
Codec ID : XVID
Codec ID/Hint : XviD
Duration : 1h 55mn
Bit rate : 716 Kbps
Width : 640 pixels
Height : 356 pixels
Display aspect ratio : 16:9
Frame rate : 23.976 fps
Color space : YUV
Chroma subsampling : 4:2:0
Bit depth : 8 bits
Scan type : Progressive
Compression mode : Lossy
Bits/(Pixel*Frame) : 0.131
Stream size : 590 MiB (84%)
Writing library : XviD 64

Audio
ID : 1
Format : MPEG Audio
Format version : Version 1
Format profile : Layer 3
Codec ID : 55
Codec ID/Hint : MP3
Duration : 1h 55mn
Bit rate mode : Constant
Bit rate : 128 Kbps
Channel(s) : 2 channels
Sampling rate : 44.1 KHz
Compression mode : Lossy
Stream size : 105 MiB (15%)
Alignment : Split accross interleaves
Interleave, duration : 42 ms (1.00 video frame)
Interleave, preload duration : 500 ms
Writing library : LAME3.99r
Encoding settings : -m s -V 4 -q 3 -lowpass 17 -b 128


Plot
After the birth of Renesmee, the Cullens gather other vampire clans in order to protect the child from a false allegation that puts the family in front of the Volturi.
 
http://www.shotpix.com/images/74263787077341195125.png 
http://www.shotpix.com/images/81737042161334341669.png 
http://www.shotpix.com/images/86461403381180477736.png 
http://www.shotpix.com/images/77275006925726256853.png
		
FileSize
The.Twilight.Saga.Breaking.Dawn.Part.2.2012.DVDRip.XviD-juggs/The.Twilight.Saga.Breaking.Dawn.Part.2.2012.DVDRip.XviD-juggs.avi702.99 Mb
The.Twilight.Saga.Breaking.Dawn.Part.2.2012.DVDRip.XviD-juggs/Torrent Downloaded From ExtraTorrent.com.txt339.00 b
The.Twilight.Saga.Breaking.Dawn.Part.2.2012.DVDRip.XviD-juggs/sample.avi6.04 Mb
TrackerSeedsLeechsDownloaded
udp://tracker.openbittorrent.com:80/scrape10210
udp://tracker.publicbt.com:80/scrape15310
udp://9.rarbg.com:2710/scrape13319604
udp://ipv4.tracker.harry.lu:80/scrape15410
http://fr33dom.h33t.com:3310/scrape000
http://tracker.thepiratebay.org/scrape000
http://tracker.coppersurfer.tk:6969/scrape1430
http://exodus.desync.com:6969/scrape7210
Report this torrent
We will carefully monitor this report and react whenever possible.
Thanks for helping us in filtering out bad content and improving TorrentReactor for every other visitor!
Please login or register to be able to report torrents.

Your comment

Please Login or register to be able to add comments.

All comments

No one has added a comment yet. Be the first one.

Related movies

Search for full movies The Twilight Saga Breaking Dawn Part 2 2012 DVDRip XviD juggs, related to The Twilight Saga Breaking Dawn Part 2 2012 DVDRip XviD juggs