Company Of Heroes 2013 BRRiP XviD-RiPRG torrent

Total size: 1.38 Gb Seeds 0 Leechs 3
Company Of Heroes 2013 BRRiP XviD-RiPRG
							
Company Of Heroes 2013 BRRiP XviD-RiPRG
American soldiers lost behind enemy lines during the WWII make a horrific discovery: Hitler has a super bomb in development. Against all odds, they set out to find the scientist in charge of the program who is looking to defect.
Format : AVI
Format/Info : Audio Video Interleave
File size : 1.37 GiB
Duration : 1h 40mn
Overall bit rate mode : Variable
Overall bit rate : 1 948 Kbps
Writing application : VirtualDubMod 1.5.10.2 (build 2540/release)
Writing library : VirtualDubMod build 2540/release
Video
ID : 0
Format : MPEG-4 Visual
Format profile : Advanced Simple@L5
Format settings, BVOP : 2
Format settings, QPel : No
Format settings, GMC : No warppoints
Format settings, Matrix : Default (H.263)
Muxing mode : Packed bitstream
Codec ID : XVID
Codec ID/Hint : XviD
Duration : 1h 40mn
Bit rate : 1 823 Kbps
Width : 720 pixels
Height : 304 pixels
Display aspect ratio : 16:9
Frame rate : 23.976 fps
Color space : YUV
Chroma subsampling : 4:2:0
Bit depth : 8 bits
Scan type : Progressive
Compression mode : Lossy
Bits/(Pixel*Frame) : 0.347
Stream size : 1.28 GiB (94%)
Writing library : XviD 64
Audio
ID : 1
Format : MPEG Audio
Format version : Version 1
Format profile : Layer 3
Mode : Joint stereo
Codec ID : 55
Codec ID/Hint : MP3
Duration : 1h 40mn
Bit rate mode : Variable
Bit rate : 113 Kbps
Minimum bit rate : 32.0 Kbps
Channel(s) : 2 channels
Sampling rate : 44.1 KHz
Compression mode : Lossy
Stream size : 81.2 MiB (6%)
Alignment : Aligned on interleaves
Interleave, duration : 26 ms (0.63 video frame)
Interleave, preload duration : 169 ms
Writing library : LAME3.98r
FileSize
Company Of Heroes 2013 BRRiP XviD-RiPRG/Company Of Heroes 2013 BRRiP XviD-RiPRG.avi1.37 Gb
Company Of Heroes 2013 BRRiP XviD-RiPRG/Company Of Heroes 2013 BRRiP XviD-RiPRG.nfo3.01 Kb
Company Of Heroes 2013 BRRiP XviD-RiPRG/Sample/Sample.avi8.26 Mb
Company Of Heroes 2013 BRRiP XviD-RiPRG/ScreenShots/1.png133.56 Kb
Company Of Heroes 2013 BRRiP XviD-RiPRG/ScreenShots/2.png149.37 Kb
Company Of Heroes 2013 BRRiP XviD-RiPRG/ScreenShots/3.png336.37 Kb
Company Of Heroes 2013 BRRiP XviD-RiPRG/ScreenShots/4.png118.31 Kb
Company Of Heroes 2013 BRRiP XviD-RiPRG/ScreenShots/5.png153.93 Kb
TrackerSeedsLeechsDownloaded
udp://tracker.publicbt.com:80/scrape0110
udp://tracker.openbittorrent.com:80/scrape004
udp://tracker.istole.it:80/scrape0110
udp://9.rarbg.com:2710/scrape0115
http://10.rarbg.com/scrape000
http://ipv4.tracker.harry.lu/scrape000
http://tracker.novalayer.org:6969/scrape000
Report this torrent
We will carefully monitor this report and react whenever possible.
Thanks for helping us in filtering out bad content and improving TorrentReactor for every other visitor!
Please login or register to be able to report torrents.

Your comment
Please Login or register to be able to add comments.
All comments

No one has added a comment yet. Be the first one.

Related torrents
Company Of Heroes 2013 BRRiP XviD-RiPRG, related to Company Of Heroes 2013 BRRiP XviD-RiPRG