Fake torrent

Identity Thief.2013.DVDRiP.XviD-PTpOWeR torrent

Total size: 699.18 Mb Seeds 0 Leechs 0
Identity Thief.2013.DVDRiP.XviD-PTpOWeR
Identity Thief.2013.DVDRiP.XviD-PTpOWeR


Format : AVI
Format/Info : Audio Video Interleave
Format profile : OpenDML
File size : 699 MiB
Duration : 1h 52mn
Overall bit rate : 1 052 Kbps
Writing application : VirtualDubMod 1.5.10.2 (build 2542/release)
Writing library : VirtualDubMod build 2542/release
Video
ID : 0
Format : MPEG-4 Visual
Format profile : AdvancedSimple@L5
Format settings, BVOP : Yes
Format settings, QPel : No
Format settings, GMC : No warppoints
Format settings, Matrix : Default (MPEG)
Codec ID : XVID
Codec ID/Hint : XviD
Duration : 1h 52mn
Bit rate : 942 Kbps
Width : 640 pixels
Height : 272 pixels
Display aspect ratio : 2.35:1
Frame rate : 23.976 fps
Resolution : 24 bits
Colorimetry : 4:2:0
Scan type : Progressive
Bits/(Pixel*Frame) : 0.271
Stream size : 669 MiB (78%)
Writing library : XviD 1.2.1 (UTC 2008-12-04)
Audio
ID : 1
Format : AC-3
Format/Info : Audio Coding 3
Codec ID : 2000
Duration : 1h 52mn
Bit rate mode : Constant
Bit rate : 128 Kbps
Channel(s) : 2 channels
Channel positions : Front: L  R
Sampling rate : 48.0 KHz
Stream size : 30 MiB (22%)
Alignment : Aligned on interleaves
Interleave, duration : 64 ms (1.53 video frames)
Interleave, preload duration : 192 ms
Source: DVD (perfect a/v/sync quality,sample included)
This torrent is not seedbox supported,please seed it.
FileSize
Identity Thief.2013.DVDRiP.XviD-PTpOWeR/Identity Thief.2013.DVDRiP.XviD-PTpOWeR.nfo1.33 Kb
Identity Thief.2013.DVDRiP.XviD-PTpOWeR/Identity Thief.2013.DVDRiP.XviD-PTpOWeR.rar699.00 Mb
Identity Thief.2013.DVDRiP.XviD-PTpOWeR/screenshot01.png67.58 Kb
Identity Thief.2013.DVDRiP.XviD-PTpOWeR/screenshot02.png62.23 Kb
Identity Thief.2013.DVDRiP.XviD-PTpOWeR/screenshot03.png56.89 Kb
TrackerSeedsLeechsDownloaded
udp://tracker.openbittorrent.com:80/scrape000
udp://tracker.publicbt.com:80/scrape000
http://tracker.torrentbox.com:2710/scrape000
http://fr33dom.h33t.com:3310/scrape000
http://tracker.thepiratebay.org/scrape000
http://luckybittorrent.com:2710/scrape000
http://tracker.novalayer.org:6969/scrape000
http://inferno.demonoid.me:3409/scrape000
http://exodus.desync.com:6969/scrape000
http://cpleft.com:2710/scrape000
http://secure.pow7.com/scrape000
http://t1.pow7.com/scrape000
http://10.rarbg.com/scrape000
http://pow7.com/scrape000
http://tracker.zond.org/scrape000
http://tracker.torrentbay.to:6969/scrape000
http://tracker.openbittorrent.com/scrape000
Report this torrent
We will carefully monitor this report and react whenever possible.
Thanks for helping us in filtering out bad content and improving TorrentReactor for every other visitor!
Please login or register to be able to report torrents.

Your comment
Please Login or register to be able to add comments.
All comments

No one has added a comment yet. Be the first one.

Related torrents
Identity Thief.2013.DVDRiP.XviD-PTpOWeR, related to Identity Thief.2013.DVDRiP.XviD-PTpOWeR