Download Django Unchained 2012 FRENCH DVDRip XviD-PTpOWeR torrent

Fake torrent

Django Unchained 2012 FRENCH DVDRip XviD-PTpOWeR torrent

Total size: 700.54 Mb Seeds 0 Leechs 0
Django Unchained 2012 FRENCH DVDRip XviD-PTpOWeR
Django Unchained 2012 FRENCH DVDRip XviD-PTpOWeR


[img]http://i.imgur.com/G5OsXjk.jpg[/img]


   
Video
ID                               : 0
Format                           : MPEG-4 Visual
Format profile                   : Advanced Simple@L5
Format settings, BVOP            : 2
Format settings, QPel            : No
Format settings, GMC             : No warppoints
Format settings, Matrix          : Default (H.263)
Muxing mode                      : Packed bitstream
Codec ID                         : XVID
Codec ID/Hint                    : XviD
Duration                         : 2h 44mn
Bit rate                         : 802 Kbps
Width                            : 720 pixels
Height                           : 310 pixels
Display aspect ratio             : 2.500
Frame rate                       : 23.976 fps
Color space                      : YUV
Chroma subsampling               : 4:2:0
Bit depth                        : 8 bits
Scan type                        : Progressive
Compression mode                 : Lossy
Bits/(Pixel*Frame)               : 0.420
Stream size                      : 657 MiB (94%)
Writing library                  : XviD 64
                               
Audio
ID                               : 1
Format                           : MPEG Audio
Format version                   : Version 1
Format profile                   : Layer 3
Mode                             : Joint stereo
Mode extension                   : MS Stereo
Codec ID                         : 55
Codec ID/Hint                    : MP3
Duration                         : 2h 44mn
Bit rate mode                    : Constant
Bit rate                         : 128 Kbps
Channel(s)                       : 2 channels
Sampling rate                    : 44.1 KHz
Compression mode                 : Lossy
Stream size                      : 42.7 MiB (6%)
Alignment                        : Split accross interleaves
Interleave, duration             : 42 ms (1.00 video frame)

Notes -
Nothing you need to know other than its very nice ;)
                               
                                              
[IMG]http://i.imgur.com/046bzu8.jpg[/IMG]
[IMG]http://i.imgur.com/LUTfBYc.jpg[/IMG]
[IMG]http://i.imgur.com/sohv4B5.jpg[/IMG]
[IMG]http://i.imgur.com/rgLRox4.jpg[/IMG]
`
FileSize
Django Unchained 2012 FRENCH DVDRip XviD-PTpOWeR/cover.jpg269.60 Kb
Django Unchained 2012 FRENCH DVDRip XviD-PTpOWeR/Django Unchained 2012 FRENCH DVDRip XviD-PTpOWeR.nfo2.29 Kb
Django Unchained 2012 FRENCH DVDRip XviD-PTpOWeR/Django Unchained 2012 FRENCH DVDRip XviD-PTpOWeR/Django Unchained 2012 FRENCH DVDRip.XviD-PTpOWeR.rar699.92 Mb
Django Unchained 2012 FRENCH DVDRip XviD-PTpOWeR/screenshot01.jpg89.85 Kb
Django Unchained 2012 FRENCH DVDRip XviD-PTpOWeR/screenshot02.jpg81.09 Kb
Django Unchained 2012 FRENCH DVDRip XviD-PTpOWeR/screenshot03.jpg122.63 Kb
Django Unchained 2012 FRENCH DVDRip XviD-PTpOWeR/screenshot04.jpg62.49 Kb
TrackerSeedsLeechsDownloaded
udp://tracker.publicbt.com:80/scrape000
http://tracker.torrentbox.com:2710/scrape000
http://fr33dom.h33t.com:3310/scrape000
http://luckybittorrent.com:2710/scrape000
http://tracker.thepiratebay.org/scrape000
http://inferno.demonoid.me:3409/scrape000
http://exodus.desync.com:6969/scrape000
http://cpleft.com:2710/scrape000
http://secure.pow7.com/scrape000
http://tracker.novalayer.org:6969/scrape000
http://t1.pow7.com/scrape000
http://10.rarbg.com/scrape000
http://pow7.com/scrape000
http://tracker.zond.org/scrape000
http://tracker.torrentbay.to:6969/scrape000
http://tracker.openbittorrent.com/scrape000
Report this torrent
We will carefully monitor this report and react whenever possible.
Thanks for helping us in filtering out bad content and improving TorrentReactor for every other visitor!
Please login or register to be able to report torrents.

Your comment
Please Login or register to be able to add comments.
All comments

No one has added a comment yet. Be the first one.

Related torrents
Django Unchained 2012 FRENCH DVDRip XviD-PTpOWeR, related to Django Unchained 2012 FRENCH DVDRip XviD-PTpOWeR