Download The Vampire Diaries S04E13 HDTV XviD Eng Sub Ita iDN_CreW torrent

The Vampire Diaries S04E13 HDTV XviD Eng Sub Ita iDN_CreW torrent

Total size: 350.00 Mb Seeds 6 Leechs 1
[img]http://imageshack.us/a/img515/3915/tvd0.jpg[/img]

[color=red][font=Arial Black]The Vampire Diaries – Stagione 4 [/font][/color]
[font=Arial Black]AVI Eng Sub Ita [/font]


[img]http://img514.imageshack.us/img514/1502/inforelease.png[/img]

[Font=Arial Black]
[color=red]Titolo:[/color] The Vampire Diaries
[color=red]Anno: [/color]2012
[color=red]Nazionalità: [/color]USA 
[color=red]Genere:[/color] horror, thriller, fantasy
[color=red]Lingua:[/color] Inglese
[color=red]Stagione:[/color] 4
[color=red]Episodi:[/color] 23
[color=red]Durata Episodio:[/color] 45 min ca (episodio)
[color=red]Ideatore:[/color] Kevin Williamson
[color=red]Distribuzione USA:[/color] The CW (dal 11 Ottobre 2012)
[color=red]Distribuzione ITALIA:[/color] Mya (dal 08 Novembre 2012)
[/font]


[img]http://img685.imageshack.us/img685/5835/casta.png[/img]


[img]http://www.badtv.it/wp-content/uploads/2012/10/vampire-diaries-s4-exclusive_1200x587-1024x500.jpg[/img]

Nina Dobrev: Elena Gilbert/Katherine Pierce

[img]http://www.badtv.it/wp-content/uploads/2012/09/the-vampire-diaries-4-nina-dobrev-150x150.jpg[/img]

Paul Wesley: Stefan Salvatore

[img]http://www.badtv.it/wp-content/uploads/2012/09/the-vampire-diaries-4-paul-wesley-150x150.jpg[/img]

Ian Somerhalder: Damon Salvatore

[img]http://www.badtv.it/wp-content/uploads/2012/09/the-vampire-diaries-4-ian-somerhalder-150x150.jpg[/img]

Steven R. McQueen: Jeremy Gilbert

[img]http://www.badtv.it/wp-content/uploads/2012/09/the-vampire-diaries-4-steven-mcqueen-150x150.jpg[/img]

Katerina Graham: Bonnie Bennett

[img]http://www.badtv.it/wp-content/uploads/2012/09/the-vampire-diaries-4-kat-graham-150x150.jpg[/img]

Candice Accola: Caroline Forbes

[img]http://www.badtv.it/wp-content/uploads/2012/09/the-vampire-diaries-4-candice-accola-150x150.jpg[/img]

Zach Roerig: Matt Donovan

[img]http://www.badtv.it/wp-content/uploads/2012/09/the-vampire-diaries-4-zach-roerig-150x150.jpg[/img]

Michael Trevino: Tyler Lockwood

[img]http://www.badtv.it/wp-content/uploads/2012/09/the-vampire-diaries-4-michael-trevino-150x150.jpg[/img]

Joseph Morgan: Klaus

[img]http://www.badtv.it/wp-content/uploads/2012/09/the-vampire-diaries-4-cast-2-150x150.jpg[/img]

Claire Holt: Rebekah

[img]http://www.badtv.it/wp-content/uploads/2012/09/the-vampire-diaries-4-claire-holt-150x150.jpg[/img]

Grace Phipps: April

Daniel Gillies: Elijah

[img]http://www.badtv.it/wp-content/uploads/2012/09/the-vampire-diaries-4-daniel-gillies-150x150.jpg[/img]

[img]http://img153.imageshack.us/img153/7608/tramao.png[/img]

[Font=Arial Black] Finale della terza stagione, che lasciava intendere molto sulle sorti di Elena. In questa stagione ripartiamo proprio da lì, dove Elena si troverà di fronte ad una nuova scelta dolorosa. Appariranno nuovi personaggi, che siano buoni o cattivi questo ancora non lo so, ma di sicuro troveranno il modo per creare problemi a Stephen e Damon, sempre in acerrima lotta con l'amore per Elena. In una Mistic Falls dove molti segreti sono stati svelati, nuovi amori stanno per nascere, continue battaglia di sopravvivenza, inizia questo nuovo capitolo di una serie diventata ormai un cult, sia in America che in Italia. Buona visione!![/font] 

[img]http://img864.imageshack.us/img864/7976/episodi.png[/img]

[Font=Arial Black][color=red]1 Growing Pains 
 2 Memorial
 3 The Rager
 4 The Five
 5 The Killer 
 6 We All Go a Little Mad Sometimes
 7 My Brother's Keeper
 8 We'll Always Have Bourbon Street
 9 O Come, All Ye Faithful
10 After School Special
11 Catch Me If You Can
12 A View to a Kill
13 Into the wild[/color]
.....
[/font]

[img]http://img190.imageshack.us/img190/7663/recension.png[/img]

[Font=Arial Black]La quarta stagione sarà incentrata su Elena e sulla sua visione del mondo attraverso gli occhi da vampira, ci concentreremo molto sul suo personaggio, sui molti aspetti della sua personalità. Inoltre questo è l'anno in cui molti personaggi si diplomeranno e vedremo l'azione spostarsi in scenografie diverse. "E' stato un anno di 'conclusione', mentre il prossimo sarà tutto all'insegna di un nuovo inizio".
[/font]


[img]http://img529.imageshack.us/img529/7286/datifile.png[/img]

Sottotitoli impressi a video (HardSub)

Programma usato: AVIRecomp

General
Complete name : The.Vampire.Diaries.S04E01.HDTV.XviD-Eng+Sub Ita-[iDN_CreW].avi
Format : AVI
Format/Info : Audio Video Interleave
File size : 340 MiB
Duration : 42mn 2s
Overall bit rate : 1 131 Kbps
Writing application : VirtualDubMod 1.5.10.2 (build 2542/release)
Writing library : VirtualDubMod build 2542/release

Video
Format : MPEG-4 Visual
Format profile : Streaming Video@L1
Format settings, BVOP : Yes
Format settings, QPel : No
Format settings, GMC : No warppoints
Format settings, Matrix : Default
Muxing mode : Packed bitstream
Codec ID : XVID
Codec ID/Hint : XviD
Duration : 42mn 2s
Bit rate : 990 Kbps
Width : 640 pixels
Height : 360 pixels
Display aspect ratio : 16/9
Frame rate : 23.976 fps
Resolution : 24 bits
Colorimetry : 4:2:0
Scan type : Progressive
Bits/(Pixel*Frame) : 0.179
Stream size : 298 MiB (88%)
Writing library : XviD 64

Audio
Format : MPEG Audio
Format version : Version 1
Format profile : Layer 3
Codec ID : 55
Codec ID/Hint : MP3
Duration : 42mn 2s
Bit rate mode : Variable
Bit rate : 128 Kbps
Channel(s) : 2 channels
Sampling rate : 48.0 KHz
Resolution : 16 bits
Stream size : 38.5 MiB (11%)
Alignment : Aligned on interleaves
Interleave, duration : 24 ms (0.58 video frame)
Interleave, preload duration : 490 ms
Writing library : LAME3.98.4



[img]http://img20.imageshack.us/img20/4974/screenshotsph.png[/img] 


[img]http://imageshack.us/a/img802/3480/vlcsnap2012101822h29m44.png[/img]
[img]http://imageshack.us/a/img546/8700/vlcsnap2012101822h30m33.png[/img]
[img]http://imageshack.us/a/img339/4079/vlcsnap2012101822h30m46.png[/img]
[img]http://imageshack.us/a/img843/1581/vlcsnap2012101822h30m53.png[/img]
[img]http://imageshack.us/a/img526/9671/vlcsnap2012101822h31m17.png[/img]



Ringrazio Badtv.it, movieplayer e wiki per informazioni e immagini, la crew AFG per la realizzazione del video, il gruppo ITASA per i sub
FileSize
iDN_CreW Leggimi.txt294.00 b
The.Vampire.Diaries.S04E13.HDTV.XviD-Eng+Sub Ita-[iDN_CreW].avi350.00 Mb
TrackerSeedsLeechsDownloaded
udp://tracker.publicbt.com:80/scrape3010
udp://tracker.openbittorrent.com:80/scrape3110
http://tracker.xbs.com.br/scrape000
http://genesis.1337x.org:1337/scrape000
http://sadnem.appspot.com/scrape000
http://bt2.careland.com.cn:6969/scrape000
http://exodus.desync.com:6969/scrape000
Report this torrent
We will carefully monitor this report and react whenever possible.
Thanks for helping us in filtering out bad content and improving TorrentReactor for every other visitor!
Please login or register to be able to report torrents.

Your comment

Please Login or register to be able to add comments.

All comments

No one has added a comment yet. Be the first one.

Related torrents

The Vampire Diaries S04E13 HDTV XviD Eng Sub Ita iDN_CreW, related to The Vampire Diaries S04E13 HDTV XviD Eng Sub Ita iDN_CreW