English

Special 26 2013 SCamRip Hindi [TMB]

Total size: 720.95 Mb Seeds 267 Leechs 23
Special 26 2013 SCamRip Hindi [TMB]
 http://i26.photobucket.com/albums/c119/manojb/good.gif 
http://i26.photobucket.com/albums/c119/manojb/vlcsnap-2013-02-09-01h16m44s185.png 
http://i26.photobucket.com/albums/c119/manojb/vlcsnap-2013-02-09-01h16m56s49.png 
http://i26.photobucket.com/albums/c119/manojb/vlcsnap-2013-02-09-01h17m05s141.png 
http://i26.photobucket.com/albums/c119/manojb/vlcsnap-2013-02-09-01h17m26s99.png

Media Info - 
General
Complete name                  : Special 26 2013 SCamRip [TMB].avi
Format                         : AVI
Format/Info                    : Audio Video Interleave
File size                      : 721 MiB
Duration                       : 2h 16mn
Overall bit rate               : 741 Kbps

Video
ID                             : 0
Format                         : MPEG-4 Visual
Format profile                 : Advanced Simple@L1
Format settings, BVOP          : 2
Format settings, QPel          : No
Format settings, GMC           : No warppoints
Format settings, Matrix        : Default (H.263)
Codec ID                       : DIVX
Codec ID/Info                  : Project Mayo
Codec ID/Hint                  : DivX 4
Duration                       : 2h 16mn
Bit rate                       : 600 Kbps
Width                          : 352 pixels
Height                         : 176 pixels
Display aspect ratio           : 2.000
Frame rate                     : 25.000 fps
Color space                    : YUV
Chroma subsampling             : 4:2:0
Bit depth                      : 8 bits
Scan type                      : Progressive
Compression mode               : Lossy
Bits/(Pixel*Frame)             : 0.387
Stream size                    : 584 MiB (81%)
Writing library                : Lavc54.59.100

Audio
ID                             : 1
Format                         : MPEG Audio
Format version                 : Version 1
Format profile                 : Layer 3
Codec ID                       : 55
Codec ID/Hint                  : MP3
Duration                       : 2h 16mn
Source duration                : 2h 16mn
Bit rate mode                  : Constant
Bit rate                       : 128 Kbps
Channel(s)                     : 2 channels
Sampling rate                  : 48.0 KHz
Compression mode               : Lossy
Stream size                    : 125 MiB (17%)
Alignment                      : Aligned on interleaves
Interleave, duration           : 24 ms (0.60 video frame)
Writing library                : LAME3.98.4
Source : ICTV - Thanks

Ripper : Manojvb

Extreme 24x7 Seeding

Note : This is CAMRip, if you are looking for better print then wait for screener ;)


Enjoy TMB Release!		
FileSize
Special 26 2013 SCamRip [TMB].avi720.95 Mb
TrackerSeedsLeechsDownloaded
http://tracker.ccc.de:80000
http://tracker.thepiratebay.org/scrape000
http://tracker.desitorrents.com:6969/000fd2ebf51e4a321b631e6d86cb168c/scrape11530
http://tracker.publicbt.com:80000
http://tracker.openbittorrent.com:80000

Report this torrent

We will carefully monitor this report and react whenever possible.
Thanks for helping us in filtering out bad content and improving TorrentReactor for every other visitor!
Please login or register to be able to report torrents.

Your comment

Please Login or register to be able to add comments.

All comments

No one has added a comment yet. Be the first one.

Related torrents

Special 26 2013 SCamRip Hindi [TMB], related to Special 26 2013 SCamRip Hindi [TMB]