Anna Karenina 2012 DVDRip English torrent

Total size: 696.71 Mb Seeds 9 Leechs 2
Anna Karenina 2012 DVDRip English
[img]http://hostpicturefree.com/images/bannerlnl.gif[/img]

[b]Cover:[/b]

[img]http://ia.media-imdb.com/images/M/MV5BMTU0NDgxNDg0NV5BMl5BanBnXkFtZTcwMjE4MzkwOA@@._V1_SY317_CR0,0,214,317_.jpg[/img]

[b]Release info:[/b]

[code]General
Format : Matroska
Format version : Version 4 / Version 2
File size : 697 MiB
Duration : 2h 4mn
Overall bit rate : 783 Kbps
Movie name : Anna Karenina 2012 DVDRip English

Video
ID : 1
Format : MPEG-4 Visual
Format profile : Simple@L3
Format settings, BVOP : No
Format settings, QPel : No
Format settings, GMC : No warppoints
Format settings, Matrix : Default (H.263)
Codec ID : V_MS/VFW/FOURCC / XVID
Codec ID/Hint : XviD
Duration : 2h 4mn
Bit rate : 640 Kbps
Width : 640 pixels
Height : 272 pixels
Display aspect ratio : 2.35:1
Frame rate mode : Constant
Frame rate : 25.000 fps
Color space : YUV
Chroma subsampling : 4:2:0
Bit depth : 8 bits
Scan type : Progressive
Compression mode : Lossy
Bits/(Pixel*Frame) : 0.147
Stream size : 569 MiB (82%)
Title : Anna Karenina 2012 DVDRip English
Language : English
Default : Yes
Forced : No

Audio
ID : 2
Format : MPEG Audio
Format version : Version 1
Format profile : Layer 3
Mode : Joint stereo
Mode extension : MS Stereo
Codec ID : A_MPEG/L3
Codec ID/Hint : MP3
Duration : 2h 4mn
Bit rate mode : Constant
Bit rate : 128 Kbps
Channel(s) : 2 channels
Sampling rate : 48.0 KHz
Compression mode : Lossy
Stream size : 114 MiB (16%)
Title : Anna Karenina 2012 DVDRip English
Language : English
Default : Yes
Forced : No


Source:
credit to original movie ripper (Thanks)[/code]

[b]IMDB Info:[/b]

[code]Set in late-19th-century Russia high-society, the aristocrat Anna Karenina enters into a life-changing affair with the affluent Count Vronsky.

Director: Joe Wright
Writers: Tom Stoppard (screenplay), Leo Tolstoy (novel)
Stars: Keira Knightley, Jude Law, Aaron Taylor-Johnson

Genres: Drama[/code]

http://www.imdb.com/title/tt1781769/

[b]Screen Shot:[/b]

[img]http://www.shotpix.com/images/85452202396434533586.png[/img]
[img]http://www.shotpix.com/images/44338162599519573674.png[/img]
[img]http://www.shotpix.com/images/34937265050914730241.png[/img]
[img]http://www.shotpix.com/images/79305377396480792805.png[/img]
FileSize
Anna Karenina 2012 DVDRip English.mkv696.71 Mb
Torrent downloaded from Accipiter torrents on DivXHunt.tk.txt2.23 Kb
Torrent Downloaded From Digtorrent.org.txt449.00 b
Torrent downloaded from souravfile torrents on BTScene.eu.txt69.00 b
TrackerSeedsLeechsDownloaded
udp://tracker.publicbt.com:80/scrape3110
udp://tracker.openbittorrent.com:80/scrape3010
udp://9.rarbg.com:2710/scrape31108
http://fr33dom.h33t.com:3310/scrape000
http://exodus.desync.com/scrape000
http://tracker.ex.ua/scrape000
http://exodus.desync.com:6969/scrape000
Report this torrent
We will carefully monitor this report and react whenever possible.
Thanks for helping us in filtering out bad content and improving TorrentReactor for every other visitor!
Please login or register to be able to report torrents.

Your comment
Please Login or register to be able to add comments.
All comments

No one has added a comment yet. Be the first one.

Related torrents
Anna Karenina 2012 DVDRip English, related to Anna Karenina 2012 DVDRip English