Vishwaroopam 2013 DVDScr New Hindi

Vishwaroopam 2013 DVDScr New Hindi

Total size: 684.91 Mb
Removed by the request of copyright owner

[img]http://hostpicturefree.com/images/bannerlnl.gif[/img]

[b]Cover:[/b]

[img]http://news.saanj.net/wp-content/uploads/2013/01/Vishwaroop-Movie-Poster.jpg[/img]

[b]Release info:[/b]

[code]General
Format : Matroska
Format version : Version 4 / Version 2
File size : 685 MiB
Duration : 2h 28mn
Overall bit rate : 646 Kbps
Movie name : Vishwaroopam 2013 DVDScr New Hindi

Video
ID : 1
Format : MPEG-4 Visual
Format profile : Advanced Simple@L5
Format settings, BVOP : Yes
Format settings, QPel : No
Format settings, GMC : No warppoints
Format settings, Matrix : Default (H.263)
Codec ID : V_MS/VFW/FOURCC / XVID
Codec ID/Hint : XviD
Duration : 2h 28mn
Bit rate : 553 Kbps
Width : 608 pixels
Height : 240 pixels
Display aspect ratio : 2.533
Frame rate mode : Constant
Frame rate : 25.000 fps
Color space : YUV
Chroma subsampling : 4:2:0
Bit depth : 8 bits
Scan type : Progressive
Compression mode : Lossy
Bits/(Pixel*Frame) : 0.152
Stream size : 586 MiB (86%)
Title : Vishwaroopam 2013 DVDScr New Hindi
Language : Hindi
Default : Yes
Forced : No

Audio
ID : 2
Format : MPEG Audio
Format version : Version 1
Format profile : Layer 3
Mode : Joint stereo
Mode extension : MS Stereo
Codec ID : A_MPEG/L3
Codec ID/Hint : MP3
Duration : 2h 28mn
Bit rate mode : Constant
Bit rate : 80.0 Kbps
Channel(s) : 2 channels
Sampling rate : 32.0 KHz
Compression mode : Lossy
Stream size : 85.1 MiB (12%)
Title : Vishwaroopam 2013 DVDScr New Hindi
Language : Hindi
Default : Yes
Forced : No



Source:
credit to original movie ripper (Thanks)[/code]

[b]IMDB Info:[/b]

[code]Ms.Nirupama was from a middle class family in Chennai, she comes to U.S to pursue her higher studies. There she marries the dance master Vishwanath and they both lead a rather happy and ... 

Director: Kamal Hassan
Writers: Kamal Hassan, Atul Tiwari
Stars: Kamal Hassan, Pooja Kumar, Andrea Jeremiah 

Genres: Action | Crime | Thriller[/code]

http://www.imdb.com/title/tt2199711/

[b]Screen Shot:[/b]

[img]http://www.shotpix.com/images/48752965062373483169.png[/img]
[img]http://www.shotpix.com/images/26730279810728542010.png[/img]
[img]http://www.shotpix.com/images/20423645286781133956.png[/img]
[img]http://www.shotpix.com/images/58795528023300108188.png[/img]
FileSize
Torrent downloaded from Accipiter torrents on DivXHunt.tk.txt2.23 Kb
Torrent Downloaded From Digtorrent.org.txt449.00 b
Torrent downloaded from souravfile torrents on BTScene.eu.txt69.00 b
Vishwaroopam 2013 DVDScr New Hindi.mkv684.90 Mb
TrackerSeedsLeechsDownloaded
http://fr33dom.h33t.com:3310/scrape1670
http://fr33domtracker.h33t.com:3310/scrape1670
http://tracker.ex.ua/scrape1670
http://exodus.desync.com/scrape000
http://9.rarbg.com:2710/scrape000
http://exodus.desync.com:6969/scrape000
http://tracker.istole.it/scrape000
http://tracker.openbittorrent.com/scrape000
http://tracker.publicbt.com/scrape000

It's removed by the request of copyright owner, but we have tons of cool stuff like this:

Search for full movies Viswaroopam 2013 Malayalam Movie DVD Rip x264 E Subs Rocky Tamilrockers Net, related to Viswaroopam 2013 Malayalam Movie DVD Rip x264 E Subs Rocky Tamilrockers Net