The Haunting in Connecticut 2 Ghosts of Georgia 2013 SWESUB DVDSCR XviD AC3 Olizzz

The Haunting in Connecticut 2 Ghosts of Georgia 2013 SWESUB DVDSCR XviD AC3 Olizzz

Total size: 1.27 Gb
Removed by the request of copyright owner

The Haunting in Connecticut 2 Ghosts of Georgia.2013.SWESUB.DVDSCR.XviD.AC3-OlizzzFormat                           : AVIFormat/Info                      : Audio Video InterleaveFormat profile                   : OpenDMLDuration                         : 110 minutesOverall bit rate                 : 1 206 KbpsWriting application              : VirtualDubMod 1.5.10.2 (build 2542/release)Writing library                  : VirtualDubMod build 2542/releaseOriginal source form             : MAX TORRENTZCopyright                        : SIGISMUNTVideoID                               : 0Format                           : MPEG-4 VisualFormat profile                   : AdvancedSimple@L5Format settings, BVOP            : YesFormat settings, QPel            : NoFormat settings, GMC             : No warppointsFormat settings, Matrix          : Default (H.263)Muxing mode                      : Packed bitstreamCodec ID                         : XVIDCodec ID/Hint                    : XviDDuration                         : 110 minutesBit rate                         : 1 010 KbpsWidth                            : 640 pixelsHeight                           : 272 pixelsDisplay aspect ratio             : 2.35:1Frame rate                       : 23.976 fpsResolution                       : 24 bitsColorimetry                      : 4:2:0Scan type                        : ProgressiveBits/(Pixel*Frame)               : 0.242Stream size                      : 962 MiB (84%)Writing library                  : XviD 57AudioID                               : 1Format                           : MPEG AudioFormat version                   : Version 1Format profile                   : Layer 3Codec ID                         : 55Codec ID/Hint                    : MP3Duration                         : 110 minutesBit rate mode                    : ConstantBit rate                         : 192 KbpsChannel(s)                       : 2 channelsSampling rate                    : 48.0 KHzResolution                       : 16 bitsStream size                      : 183 MiB (16%)Alignment                        : Aligned on interleavesInterleave, duration             : 712 ms (17.08 video frames)Interleave, preload duration     : 216 msWriting library                  : LAME3.98.2 Source: DVD (perfect a/v/sync quality+filtered audio with additional 400% volume , sample is included)The Haunting in Connecticut 2 Ghosts of Georgia.2013.SWESUB.DVDSCR.XviD.AC3-Olizzz Free DownloadTorrent Client - Preferences - Bandwidth - Number of connections - Set aprox. 500 for each Torrent Client - Preferences - BiTorrent - Protocol Encryption - ForcedBandwidth Allocation - High (Set download/upload limit - Unlimited)Stop Other Active Torrents - Start downloading and wait for connections.Enjoy and Seed for at least 1:1 ratio. Don't forget to say thanks/leave reviews.Before downloading you should check/google search sample "release name""sample".Greets to all actual/future p2p/scene QUALITY groups and affiliate websites.Don't trust IMDb robot or bad ratings,always watch some trailers first.Please spread this release/torrent to your friends/forums/etc.If you need translation subs visit some subtitles sites.Report if you see online streaming or other spam links.Recommended movie player VLC PLAYER. Torrent Free Download
FileSize
The Haunting in Connecticut 2 Ghosts of Georgia.2013.SWESUB.DVDSCR.XviD.AC3-Olizzz/MOVIE.nfo4.74 Kb
The Haunting in Connecticut 2 Ghosts of Georgia.2013.SWESUB.DVDSCR.XviD.AC3-Olizzz/The Haunting in Connecticut 2 Ghosts of Georgia.2013.SWESUB.DVDSCR.XviD.AC3-Olizzz.avi1.24 Gb
The Haunting in Connecticut 2 Ghosts of Georgia.2013.SWESUB.DVDSCR.XviD.AC3-Olizzz/Torrent_downloaded_from_Extratorrent_Com.txt42.00 b
The Haunting in Connecticut 2 Ghosts of Georgia.2013.SWESUB.DVDSCR.XviD.AC3-Olizzz/extrainfoplain.png50.50 Kb
The Haunting in Connecticut 2 Ghosts of Georgia.2013.SWESUB.DVDSCR.XviD.AC3-Olizzz/sample.mp429.77 Mb
TrackerSeedsLeechsDownloaded
http://000
http://fr33dom.h33t.com:3310/scrape100
http://red.tracker.prq.to/scrape000
http://www.h33t.com:3310/scrape000
http://tracker.publicbits.com/scrape000
http://tpb.tracker.prq.to/scrape000
http://tracker.publicbt.com/scrape000
http://vip.tracker.prq.to/scrape000
http://tv.tracker.prq.to/scrape.php000
http://the.illusionist.tracker.prq.to/scrape000
http://vtv.tv.tracker.prq.to/scrape.php000
http://tracker.ilibr.org/scrape000
http://tracker.publicbt.com//scrape000
http://exodus.desync.com:6969/scrape000
http://tracker.zond.org/scrape000

It's removed by the request of copyright owner, but we have tons of cool stuff like this:

Search for full movies The Haunting in Connecticut 2 Ghosts of Georgia 2013 HDRip 304p Zend, related to The Haunting in Connecticut 2 Ghosts of Georgia 2013 HDRip 304p Zend