The Last Stand 2013 DVDRip XviD VoMiT

The Last Stand 2013 DVDRip XviD VoMiT

Total size: 689.15 Mb
Removed by the request of copyright owner

VideoID : 0Format : MPEG-4 VisualFormat profile : Advanced Simple@L5Format settings, BVOP : 1Format settings, QPel : NoFormat settings, GMC : No warppointsFormat settings, Matrix : Default (H.263)Codec ID : XVIDCodec ID/Hint : XviDDuration : 1h 28mnBit rate : 1 500 KbpsWidth : 640 pixelsHeight : 360 pixelsDisplay aspect ratio : 16:9Frame rate : 29.970 fpsColor space : YUVChroma subsampling : 4:2:0Bit depth : 8 bitsScan type : ProgressiveCompression mode : LossyBits/(Pixel*Frame) : 0.217Stream size : 578 MiB (77%)Writing library : XviD 1.2.1 (UTC 2008-12-04)AudioID : 1Format : AC-3Format/Info : Audio Coding 3Mode extension : CM (complete main)Codec ID : 2000Duration : 1h 28mnBit rate mode : ConstantBit rate : 448 KbpsChannel(s) : 6 channelsChannel positions : Front: L C R, Side: L R, LFESampling rate : 48.0 KHzBit depth : 16 bitsCompression mode : LossyStream size : 183 MiB (23%)Alignment : Aligned on interleavesInterleave, duration : 33 ms (1.00 video frame)Interleave, preload duration : 512 ms		
FileSize
The Last Stand.2013.DVDRip.XviD-VoMiT/info.nfo5.09 Kb
The Last Stand.2013.DVDRip.XviD-VoMiT/READ this before playing the Video.txt5.61 Kb
The Last Stand.2013.DVDRip.XviD-VoMiT/Subtitle.srt64.77 Kb
The Last Stand.2013.DVDRip.XviD-VoMiT/The Last Stand.2013.DVDRip.XviD-VoMiT.wmv689.08 Mb
TrackerSeedsLeechsDownloaded
http://tracker.thepiratebay.org/scrape000
http://tracker.ccc.de:80000
http://ccc.ddns.us/tracker/scrape.php35844410
http://tracker.torrent.to:2710/scrape110
http://9.rarbg.com:2710/scrape000
http://tracker.torrentbay.to:6969/scrape000
http://tracker.token.ro/scrape000
http://10.rarbg.com/scrape000
http://t1.pow7.com/scrape000
http://pow7.com/scrape000
http://tracker.publicbt.com/scrape000
http://tracker.istole.it/scrape000
http://tracker.istole.it:6969000
http://tracker.publicbt.com:80000
http://tracker.openbittorrent.com:80000
Search for full movies The Last Stand 2013 BDRip 1080p x264 DTS HighCode, related to The Last Stand 2013 BDRip 1080p x264 DTS HighCode