Matru Ki Bijlee ka Mandola 2013 DVDScr Hindi

Matru Ki Bijlee ka Mandola 2013 DVDScr Hindi

Total size: 685.61 Mb
Removed by the request of copyright owner

Release info:

General
Format                                   : Matroska
Format version                           : Version 2
File size                                : 686 MiB
Duration                                 : 2h 20mn
Overall bit rate                         : 681 Kbps
Movie name                               : Matru Ki Bijlee ka Mandola

Video
ID                                       : 1
Format                                   : MPEG-4 Visual
Format profile                           : Advanced Simple@L5
Format settings, BVOP                    : Yes
Format settings, QPel                    : No
Format settings, GMC                     : No warppoints
Format settings, Matrix                  : Default (H.263)
Codec ID                                 : V_MS/VFW/FOURCC / XVID
Codec ID/Hint                            : XviD
Duration                                 : 2h 20mn
Bit rate                                 : 588 Kbps
Width                                    : 640 pixels
Height                                   : 256 pixels
Display aspect ratio                     : 2.500
Frame rate mode                          : Constant
Frame rate                               : 25.000 fps
Color space                              : YUV
Chroma subsampling                       : 4:2:0
Bit depth                                : 8 bits
Scan type                                : Progressive
Compression mode                         : Lossy
Bits/(Pixel*Frame)                       : 0.144
Stream size                              : 591 MiB (86%)
Title                                    : Matru Ki Bijlee ka Mandola
Language                                 : Hindi
Default                                  : Yes
Forced                                   : No

Audio
ID                                       : 2
Format                                   : MPEG Audio
Format version                           : Version 1
Format profile                           : Layer 3
Mode                                     : Joint stereo
Mode extension                           : MS Stereo
Muxing mode                              : Header stripping
Codec ID                                 : A_MPEG/L3
Codec ID/Hint                            : MP3
Duration                                 : 1h 5mn
Bit rate mode                            : Constant
Bit rate                                 : 80.0 Kbps
Channel(s)                               : 2 channels
Sampling rate                            : 32.0 KHz
Compression mode                         : Lossy
Stream size                              : 37.8 MiB (6%)
Title                                    : Matru Ki Bijlee ka Mandola
Language                                 : Hindi
Default                                  : Yes
Forced                                   : No



Source:
credit to original movie ripper DDR (Thanks)

IMDB Info:

Harry is an industrialist who loves his daughter Bijlee, and the bond they share with Harry's man friday, Matru. Bijlee's plan to wed the son of a politician, however, brings twists and turns in the lives of Matru, Bijlee and Mandola.

Director: Vishal Bhardwaj
Writers: Vishal Bhardwaj (dialogue), Vishal Bhardwaj (screenplay), 
Stars: Pankaj Kapur, Imran Khan and Anushka Sharma 

Genres: Comedy
 
http://www.imdb.com/title/tt2106537/

Screen Shot:
 
http://www.shotpix.com/images/21352714037612869028.png 
http://www.shotpix.com/images/31589933876410232847.png 
http://www.shotpix.com/images/54505965107341540384.png 
http://www.shotpix.com/images/51816034803945429611.png 
http://www.shotpix.com/images/95597042632710390491.png 
http://www.shotpix.com/images/41318545342815049110.png		
FileSize
Matru Ki Bijlee ka Mandola 2013 DVDScr Hindi.mkv685.61 Mb
Torrent Downloaded From Digtorrent.org.txt346.00 b
Torrent downloaded from souravfile torrents on BTScene.eu.txt69.00 b
TrackerSeedsLeechsDownloaded
http://tracker.ex.ua/scrape51580
http://exodus.desync.com:6969/scrape21650
http://exodus.desync.com/scrape21650
http://fr33domtracker.h33t.com:3310/scrape51650
http://tracker.ccc.de:80000
http://tracker.thepiratebay.org/scrape000
http://9.rarbg.com:2710/scrape000
http://fr33dom.h33t.com:3310/scrape000
http://tracker.publicbt.com:80000
http://tracker.istole.it:80000
http://tracker.openbittorrent.com:80000
Search for full movies Matru Ki Bijlee Ka Mandola 2013 Hindi BRRip 720p x264 AAC 5 1 Hon3y, related to Matru Ki Bijlee Ka Mandola 2013 Hindi BRRip 720p x264 AAC 5 1 Hon3y