Download Death Race 3, Inferno 2012 DVDrip English Klam torrent

Death Race 3, Inferno 2012 DVDrip English Klam torrent

Total size: 1.85 Gb Seeds 4 Leechs 5
With: Danny Trejo, Ving Rhames and Luke Goss

De veroordeelde moordenaar Carl Lucas alias Frankenstein is een superster, die in het wrede racewereldje van de gevangenis bekend staat als Death Race. Slechts één zege verwijderd van de vrijheid voor zichzelf en zijn pitcrew, wordt Lucas in een geheel nieuwe wedstrijd gegooid, nog wreder dan alles wat hij heeft meegemaakt. In een poging om zichzelf en zijn team in leven te houden, moet hij het opnemen tegen de meest meedogenloze tegenstanders in een helse race dwars door de Kalahari woestijn in Zuid-Afrika.

Convicted cop-killer Carl Lucas, aka Frankenstein, is a superstar driver in the brutal prison yard demolition derby known as Death Race...
 
http://www.imdb.com/title/tt1988591	

------------------------ Dutch Friends ------------------------
---------------------------------------------------------------
- Bezoek ook eens mijn vrienden op:  http://www.Film-Test.nl --
----- voor mijn Nederlandse Sync. ondertitels ---- en meer ----
------- http://www.Film-Test.nl ---- Over Films en meer -------
---------------------------------------------------------------

General:

Complete name                    : Death Race 3Death Race 3 Inferno.avi
Format                           : AVI
Format/Info                      : Audio Video Interleave
File size                        : 1.85 GiB
Duration                         : 1h 45mn
Overall bit rate                 : 2 511 Kbps

Video:

Format                           : MPEG-4 Visual
Format profile                   : Simple@L3
Format settings, BVOP            : No
Format settings, QPel            : No
Format settings, GMC             : No warppoints
Format settings, Matrix          : Default (H.263)
Codec ID                         : XVID
Codec ID/Hint                    : XviD
Duration                         : 1h 45mn
Bit rate                         : 2 053 Kbps
Width                            : 704 pixels
Height                           : 396 pixels
Display aspect ratio             : 16:9
Frame rate                       : 25.000 fps
Color space                      : YUV
Chroma subsampling               : 4:2:0
Bit depth                        : 8 bits
Scan type                        : Progressive
Compression mode                 : Lossy
Bits/(Pixel*Frame)               : 0.295
Stream size                      : 1.51 GiB (82%)
Writing library                  : XviD 1.1.2 (UTC 2006-11-01)

Audio:

Format                           : AC-3
Format/Info                      : Audio Coding 3
Mode extension                   : CM (complete main)
Codec ID                         : 2000
Duration                         : 1h 45mn
Bit rate mode                    : Constant
Bit rate                         : 448 Kbps
Channel(s)                       : 6 channels
Channel positions                : Front: L C R, Side: L R, LFE
Sampling rate                    : 48.0 KHz
Bit depth                        : 16 bits
Compression mode                 : Lossy
Stream size                      : 337 MiB (18%)
Alignment                        : Aligned on interleaves
Interleave, duration             : 32 ms (0.80 video frame)
Interleave, preload duration     : 160 ms		
FileSize
Death Race 3/Cover/Death Race 3.jpg469.98 Kb
Death Race 3/Cover/www.Film-Test.nl.JPG28.78 Kb
Death Race 3/Death Race 3 Inferno.avi1.85 Gb
Death Race 3/New Dutch Site.txt117.00 b
Death Race 3/www.Film-Test.nl.JPG28.78 Kb
TrackerSeedsLeechsDownloaded
udp://tracker.openbittorrent.com:80/scrape012
udp://tracker.publicbt.com:80/scrape110
udp://tracker.istole.it:80/scrape1110
udp://tracker.ex.ua:80/scrape110
http://tracker.thepiratebay.org/scrape000
http://scrape.torrentsmd.com:6969/scrape000
http://fr33dom.h33t.com:3310/scrape000
http://i.bandito.org/scrape000
http://tracker.ex.ua/scrape110
http://tracker.tfile.me/scrape000
http://exodus.desync.com:6969/scrape000
http://exodus.desync.com/scrape000
http://bt.home-ix.ru/scrape000
http://tracker.torrentfrancais.com/scrape000
Report this torrent
We will carefully monitor this report and react whenever possible.
Thanks for helping us in filtering out bad content and improving TorrentReactor for every other visitor!
Please login or register to be able to report torrents.

Your comment
Please Login or register to be able to add comments.
All comments

No one has added a comment yet. Be the first one.

Related torrents
Death Race 3, Inferno 2012 DVDrip English Klam, related to Death Race 3, Inferno 2012 DVDrip English Klam