A Haunted House 2013 BRRip XviD FTW

A Haunted House 2013 BRRip XviD FTW

Total size: 1.02 Gb
Removed by the request of copyright owner

A Haunted House (2013) BRRip XviD-FTWVideoID : 0Format : MPEG-4 VisualFormat profile : Advanced Simple@L5Format settings, BVOP : 2Format settings, QPel : NoFormat settings, GMC : No warppointsFormat settings, Matrix : Default (H.263)Muxing mode : Packed bitstreamCodec ID : XVIDCodec ID/Hint : XviDDuration : 1h 36mnBit rate : 1 573 KbpsWidth : 720 pixelsHeight : 304 pixelsDisplay aspect ratio : 2.35:1Frame rate : 23.976 fpsColor space : YUVChroma subsampling : 4:2:0Bit depth : 8 bitsScan type : ProgressiveCompression mode : LossyBits/(Pixel*Frame) : 0.300Stream size : 1.06 GiB (77%)Writing library : XviD 64AudioID : 1Format : AC-3Format/Info : Audio Coding 3Mode extension : CM (complete main)Format settings, Endianness : BigCodec ID : 2000Duration : 1h 36mnBit rate mode : ConstantBit rate : 448 KbpsChannel(s) : 6 channelsChannel positions : Front: L C R, Side: L R, LFESampling rate : 48.0 KHzBit depth : 16 bitsCompression mode : LossyStream size : 309 MiB (22%)Alignment : Aligned on interleavesInterleave, duration : 42 ms (1.00 video frame)
FileSize
A Haunted House (2013) BRRip XviD-FTW/A Haunted House (2013) BRRip XviD-FTW.avi1.02 Gb
A Haunted House (2013) BRRip XviD-FTW/extrainfoplain.png50.50 Kb
A Haunted House (2013) BRRip XviD-FTW/ExtraTorrentRG.mp41.45 Mb
A Haunted House (2013) BRRip XviD-FTW/MOVIE.nfo4.74 Kb
A Haunted House (2013) BRRip XviD-FTW/Torrent downloaded from Rarbg.com.txt22.00 b
A Haunted House (2013) BRRip XviD-FTW/Torrent downloaded from www.KAT.ph.txt41.00 b
A Haunted House (2013) BRRip XviD-FTW/Torrent_downloaded_from_Extratorrent_Com.txt42.00 b
TrackerSeedsLeechsDownloaded
http://000
http://fr33dom.h33t.com:3310/scrape100
http://www.h33t.com:3310/scrape100
http://red.tracker.prq.to/scrape000
http://tracker.publicbits.com/scrape000
http://tpb.tracker.prq.to/scrape000
http://tracker.publicbt.com/scrape000
http://vip.tracker.prq.to/scrape000
http://tv.tracker.prq.to/scrape.php000
http://the.illusionist.tracker.prq.to/scrape000
http://exodus.desync.com:6969/scrapeexodus.desync.com:6969/scrape000
http://vtv.tv.tracker.prq.to/scrape.php000
http://tracker.ilibr.org/scrape000
http://tracker.publicbt.com//scrape000
http://exodus.desync.com:6969/scrape000
http://tracker.zond.org/scrape000
Search for full movies A Haunted House 2 2014 1080p BluRay x264 MUVI, related to A Haunted House 2 2014 1080p BluRay x264 MUVI