Matru Ki Bijlee Ka Mandola 2013 Hindi Movies Cam rip New Source Sample Included rDX

Matru Ki Bijlee Ka Mandola 2013 Hindi Movies Cam rip New Source Sample Included rDX

Total size: 711.83 Mb
Removed by the request of copyright owner

  • Category
  • Added
    on 2013-01-12 13:00:58
  • Hash
    4EF8A30BDF6E9A1CC4D47C4DF79A528E4DF24247
Matru Ki Bijlee Ka Mandola 2013 Hindi Movies Cam rip New Source Sample Included ~ rDX

[color=red][b]Screen Shots :[/b][/color]

[b][url]http://myimghosting.serveftp.com/MatruKiBijleeKaMandola.html[/url]

[url]http://myimghost.cwahi.net/MatruKiBijleeKaMandola.html[/url][/b]


Format : MPEG-PS
File size : 706 MiB
Duration : 2h 16mn
Overall bit rate mode : Variable
Overall bit rate : 726 Kbps


Video
ID : 224 (0xE0)
Format : MPEG Video
Format version : Version 2
Format settings, BVOP : Yes
Format settings, Matrix : Custom
Format settings, GOP : Variable
Duration : 2h 16mn
Bit rate mode : Variable
Bit rate : 643 Kbps
Width : 352 pixels
Height : 288 pixels
Display aspect ratio : 1.222
Frame rate : 25.000 fps
Standard : PAL
Color space : YUV
Bit depth : 8 bits
Scan type : Progressive
Compression mode : Lossy
Bits/(Pixel*Frame) : 0.254
Stream size : 630 MiB (89%)


Audio
ID : 192 (0xC0)
Format : MPEG Audio
Format version : Version 1
Format profile : Layer 2
Duration : 2h 16mn
Bit rate mode : Constant
Bit rate : 64.0 Kbps
Channel(s) : 2 channels
Sampling rate : 48.0 KHz
Compression mode : Lossy
Stream size : 62.3 MiB (9%)
FileSize
Matru Ki Bijlee Ka Mandola 2013 Hindi Movies Cam rip New Source ~ rDX.mpg706.49 Mb
Sample ~ Matru Ki Bijlee Ka Mandola 2013 Hindi Movies Cam rip New Source ~ rDX.mpg5.34 Mb
TrackerSeedsLeechsDownloaded
http://tracker.ccc.de/scrape000
http://fr33dom.h33t.com:3310/scrape163886442
http://fr33domtracker.h33t.com:3310/scrape164896442
http://exodus.desync.com/scrape167945105
http://9.rarbg.com:2710/scrape000
http://coppersurfer.tk:6969/scrape000
http://tracker.istole.it/scrape000
http://tracker.openbittorrent.com/scrape000
http://tracker.publicbt.com/scrape000
Search for full movies Matru Ki Bijlee Ka Mandola 2013 Hindi BRRip 720p x264 AAC 5 1 Hon3y, related to Matru Ki Bijlee Ka Mandola 2013 Hindi BRRip 720p x264 AAC 5 1 Hon3y