Skyfall 2012 FRENCH DVDRip XviD 3PsiLoN

Skyfall 2012 FRENCH DVDRip XviD 3PsiLoN

Total size: 701.30 Mb
Removed by the request of copyright owner

Skyfall (2012) FRENCH DVDRip XviD - 3PsiLoN

STATS:

Video
ID                               : 0
Format                           : MPEG-4 Visual
Format profile                   : Advanced Simple@L5
Format settings, BVOP            : 2
Format settings, QPel            : No
Format settings, GMC             : No warppoints
Format settings, Matrix          : Default (MPEG)
Muxing mode                      : Packed bitstream
Codec ID                         : XVID
Codec ID/Hint                    : XviD
Duration                         : 1h 53mn
Bit rate                         : 986 Kbps
Width                            : 720 pixels
Height                           : 320 pixels
Display aspect ratio             : 2.25:1
Frame rate                       : 29.970 fps
Color space                      : YUV
Chroma subsampling               : 4:2:0
Bit depth                        : 8 bits
Scan type                        : Progressive
Compression mode                 : Lossy
Bits/(Pixel*Frame)               : 0.243
Stream size                      : 700 MiB (92%)
Writing library                  : XviD 64

Audio

Format                           : MPEG Audio
Format version                   : Version 1
Format profile                   : Layer 3
Mode                             : Joint stereo
Mode extension                   : MS Stereo
Codec ID                         : 55
Codec ID/Hint                    : MP3
Duration                         : 1h 53mn
Bit rate mode                    : Constant
Bit rate                         : 128 Kbps
Channel(s)                       : 2 channels
Sampling rate                    : 48.0 KHz
Compression mode                 : Lossy
Stream size                      : 51 MiB (7%)
Alignment                        : Split accross interleaves
Interleave, duration             : 33 ms (1.00 video frame)
Interleave, preload duration     : 500 ms
`                                   
FileSize
Skyfall (2012) FRENCH DVDRip XviD - 3PsiLoN/cover.jpg136.29 Kb
Skyfall (2012) FRENCH DVDRip XviD - 3PsiLoN/screenshot1.png765.33 Kb
Skyfall (2012) FRENCH DVDRip XviD - 3PsiLoN/screenshot2.png278.08 Kb
Skyfall (2012) FRENCH DVDRip XviD - 3PsiLoN/screenshot3.png713.11 Kb
Skyfall (2012) FRENCH DVDRip XviD - 3PsiLoN/Skyfall (2012) FRENCH DVDRip XviD - 3PsiLoN.nfo1.94 Kb
Skyfall (2012) FRENCH DVDRip XviD - 3PsiLoN/Skyfall (2012) FRENCH DVDRip XviD - 3PsiLoN/Skyfall (2012) FRENCH DVDRip XviD - 3PsiLoN.rar699.45 Mb
TrackerSeedsLeechsDownloaded
http://tracker.openbittorrent.com/scrape000
http://tracker.torrentbay.to:6969/scrape000
http://tracker.zond.org/scrape000
http://pow7.com/scrape000
http://10.rarbg.com/scrape000
http://luckybittorrent.com:2710/scrape000
http://inferno.demonoid.me:3409/scrape000
http://t1.pow7.com/scrape000
http://tracker.novalayer.org:6969/scrape000
http://tracker.publicbt.com:80000
http://tracker.openbittorrent.com:80000
http://secure.pow7.com/scrape000
http://tra ker.openbittorrent.com/scrape000
http://cpleft.com:2710/scrape000
http://fr33dom.h33t.com:3310/scrape000
http://tracker.thepiratebay.org/scrape000
http://tracker.ccc.de:80000
http://tracker.torrentbox.com:2710/scrape000
http://exodus.desync.com:6969/scrape000

It's removed by the request of copyright owner, but we have tons of cool stuff like this:

Search for full movies Skyfall 2012 avi, related to Skyfall 2012 avi