Download Les Mondes de Ralph (2012) FRENCH DVDRip XviD - playXD torrent

Fake torrent

Les Mondes de Ralph (2012) FRENCH DVDRip XviD - playXD torrent

Total size: 700.90 Mb Seeds 0 Leechs 0
Les Mondes de Ralph (2012) FRENCH DVDRip XviD - playXD

STATS:

Video
ID                               : 0
Format                           : MPEG-4 Visual
Format profile                   : Advanced Simple@L5
Format settings, BVOP            : 2
Format settings, QPel            : No
Format settings, GMC             : No warppoints
Format settings, Matrix          : Default (MPEG)
Muxing mode                      : Packed bitstream
Codec ID                         : XVID
Codec ID/Hint                    : XviD
Duration                         : 1h 41mn
Bit rate                         : 986 Kbps
Width                            : 720 pixels
Height                           : 320 pixels
Display aspect ratio             : 2.25:1
Frame rate                       : 29.970 fps
Color space                      : YUV
Chroma subsampling               : 4:2:0
Bit depth                        : 8 bits
Scan type                        : Progressive
Compression mode                 : Lossy
Bits/(Pixel*Frame)               : 0.243
Stream size                      : 700 MiB (92%)
Writing library                  : XviD 64

Audio

Format                           : MPEG Audio
Format version                   : Version 1
Format profile                   : Layer 3
Mode                             : Joint stereo
Mode extension                   : MS Stereo
Codec ID                         : 55
Codec ID/Hint                    : MP3
Duration                         : 1h 41mn
Bit rate mode                    : Constant
Bit rate                         : 128 Kbps
Channel(s)                       : 2 channels
Sampling rate                    : 48.0 KHz
Compression mode                 : Lossy
Stream size                      : 51 MiB (7%)
Alignment                        : Split accross interleaves
Interleave, duration             : 33 ms (1.00 video frame)
Interleave, preload duration     : 500 ms
      
FileSize
Les Mondes de Ralph (2012) FRENCH DVDRip XviD - playXD/cover.jpg99.44 Kb
Les Mondes de Ralph (2012) FRENCH DVDRip XviD - playXD/Les Mondes de Ralph (2012) FRENCH DVDRip XviD - playXD.nfo1.92 Kb
Les Mondes de Ralph (2012) FRENCH DVDRip XviD - playXD/Les Mondes de Ralph (2012) FRENCH DVDRip XviD - playXD/Les Mondes de Ralph (2012) FRENCH DVDRip XviD - playXD.rar699.45 Mb
Les Mondes de Ralph (2012) FRENCH DVDRip XviD - playXD/screenshot1.jpg65.37 Kb
Les Mondes de Ralph (2012) FRENCH DVDRip XviD - playXD/screenshot2.jpg623.28 Kb
Les Mondes de Ralph (2012) FRENCH DVDRip XviD - playXD/screenshot3.jpg694.67 Kb
TrackerSeedsLeechsDownloaded
udp://tracker.openbittorrent.com:80/scrape000
udp://tracker.publicbt.com:80/scrape000
http://tracker.torrentbox.com:2710/scrape000
http://fr33dom.h33t.com:3310/scrape000
http://tracker.thepiratebay.org/scrape000
http://inferno.demonoid.me:3409/scrape000
http://luckybittorrent.com:2710/scrape000
http://exodus.desync.com:6969/scrape000
http://cpleft.com:2710/scrape000
http://secure.pow7.com/scrape000
http://tracker.novalayer.org:6969/scrape000
http://t1.pow7.com/scrape000
http://10.rarbg.com/scrape000
http://pow7.com/scrape000
http://tracker.zond.org/scrape000
http://tracker.torrentbay.to:6969/scrape000
http://tracker.openbittorrent.com/scrape000
Report this torrent
We will carefully monitor this report and react whenever possible.
Thanks for helping us in filtering out bad content and improving TorrentReactor for every other visitor!
Please login or register to be able to report torrents.

Your comment
Please Login or register to be able to add comments.
All comments

No one has added a comment yet. Be the first one.

Related torrents
Les Mondes de Ralph (2012) FRENCH DVDRip XviD - playXD, related to Les Mondes de Ralph (2012) FRENCH DVDRip XviD - playXD