Download Chinese Zodiac 2012 DVDrip XviD torrent

Fake torrent

Chinese Zodiac 2012 DVDrip XviD torrent

Total size: 720.89 Mb Seeds 0 Leechs 0
Format                           : AVIFormat/Info                      : Audio Video InterleaveFormat profile                   : OpenDMLOverall bit rate                 : 1 800 KbpsWriting application              : VirtualDubMod 1.5.10.2 (build 2542/release)Writing library                  : VirtualDubMod build 2542/release[b]Video[/b]Format                           : MPEG-4 VisualFormat settings, BVOP            : YesFormat settings, QPel            : NoFormat settings, Matrix          : Default (MPEG)Codec ID                         : XVIDCodec ID/Hint                    : XviDBit rate                         : 1 411 KbpsWidth                            : 640 pixelsHeight                           : 272 pixelsDisplay aspect ratio             : 2.35:1Frame rate                       : 23.976 fpsResolution                       : 24 bitsColorimetry                      : 4:2:0Scan type                        : ProgressiveBits/(Pixel*Frame)               : 0.338Stream size                      : 1.03 GiB (78%)[b]Audio[/b]Format                           : AC-3Format/Info                      : Audio Coding 3Codec ID                         : 2000Bit rate mode                    : ConstantBit rate                         : 384 KbpsChannel(s)                       : 6 channelsChannel positions                : Front: L C R, Surround: L R, LFESampling rate                    : 48.0 KHzStream size                      : 287 MiB (21%)Alignment                        : Aligned on interleavesInterleave, duration             : 64 ms (1.53 video frames)Interleave, preload duration     : 192 ms
FileSize
Chinese Zodiac.2012.DVDrip.XviD/Chinese Zodiac.2012.DVDrip.XviD.jpeg1.00 Mb
Chinese Zodiac.2012.DVDrip.XviD/Chinese Zodiac.2012.DVDrip.XviD.nfo1.00 Mb
Chinese Zodiac.2012.DVDrip.XviD/Chinese Zodiac.2012.DVDrip.XviD/Chinese Zodiac.2012.DVDrip.XviD.rar708.89 Mb
Chinese Zodiac.2012.DVDrip.XviD/Chinese Zodiac.DVDrip.XviD.avi10.00 Mb
Chinese Zodiac.2012.DVDrip.XviD/Dmt Nfo.txt477.00 b
Chinese Zodiac.2012.DVDrip.XviD/Torrent Downloaded From downloadhindimovies.in.txt478.00 b
Chinese Zodiac.2012.DVDrip.XviD/Torrent downloaded from h33t.com.txt478.00 b
TrackerSeedsLeechsDownloaded
udp://tracker.openbittorrent.com:80/scrape000
http://nyaatorrents.info:3277/scrape000
http://open.tracker.thepiratebay.org/scrape000
http://denis.stalker.h3q.com:6969/scrape000
http://fr33dom.h33t.com:3310/scrape000
http://secure.pow7.com/scrape000
http://pow7.com/scrape000
http://amplicate.appspot.com/scrape000
http://dotehwerk.appspot.com/scrape000
http://mcasttracker.appspot.com/scrape000
http://www.th0r1n.com/scrape000
http://cpleft.com:2710/scrape000
http://tracker.blazing.de:6969/scrape000
http://tracker.prq.to/scrape000
http://torrent-downloads.to:5869/scrape000
http://tv.tracker.prq.to:80/scrape.php000
http://ipv4.tracker.harry.lu/scrape000
http://10.rarbg.com/scrape000
http://10.rarbg.com:80/scrape000
http://tracker.novalayer.org:6969/scrape000
http://tracker.torrentbay.to:6969/scrape000
http://bt.home-ix.ru/scrape000
http://ix3.rutracker.net/scrape000
Report this torrent
We will carefully monitor this report and react whenever possible.
Thanks for helping us in filtering out bad content and improving TorrentReactor for every other visitor!
Please login or register to be able to report torrents.

Your comment
Please Login or register to be able to add comments.
All comments

No one has added a comment yet. Be the first one.

Related torrents
Chinese Zodiac 2012 DVDrip XviD, related to Chinese Zodiac 2012 DVDrip XviD