Exam-720p MP4 AAC x264 BRRip 2009-CC torrent

Total size: 2.83 Gb Seeds 20 Leechs 30
 http://www.imdb.com/title/tt1258197/

Source: Exam 2009 720p BluRay x264-AVCHD Thanks!

Subs: Arabic, Brazilian, Czech, Danish, Dutch, English, Farsi-Persian, French, Greek, Hebrew, Hungarian, Indonesian, Italian, Macedonian, Norwegian, Portuguese, Romanian, Servian, Slovenian, Spanish and Turkish.

Sample and Screens included.

General
Complete name                            : Exam-720p MP4 AAC x264 BRRip 2009-CC.mp4
Format                                   : MPEG-4
Format profile                           : Base Media
Codec ID                                 : isom
File size                                : 2.80 GiB
Duration                                 : 1h 36mn
Overall bit rate mode                    : Variable
Overall bit rate                         : 4 137 Kbps
Encoded date                             : UTC 2012-12-21 15:17:38

Video
ID                                       : 1
Format                                   : AVC
Format/Info                              : Advanced Video Codec
Format profile                           : [email protected]
Format settings, CABAC                   : Yes
Format settings, ReFrames                : 5 frames
Codec ID                                 : avc1
Codec ID/Info                            : Advanced Video Coding
Duration                                 : 1h 36mn
Bit rate                                 : 3 783 Kbps
Maximum bit rate                         : 33.5 Mbps
Width                                    : 1 280 pixels
Height                                   : 544 pixels
Display aspect ratio                     : 2.35:1
Frame rate mode                          : Variable
Frame rate                               : 25.000 fps
Minimum frame rate                       : 20.000 fps
Maximum frame rate                       : 25.000 fps
Color space                              : YUV
Chroma subsampling                       : 4:2:0
Bit depth                                : 8 bits
Scan type                                : Progressive
Bits/(Pixel*Frame)                       : 0.217
Stream size                              : 2.54 GiB (91%)
Writing library                          : x264 core 112

Audio
ID                                       : 2
Format                                   : AAC
Format/Info                              : Advanced Audio Codec
Format profile                           : LC
Codec ID                                 : 40
Duration                                 : 1h 36mn
Bit rate mode                            : Variable
Bit rate                                 : 384 Kbps
Maximum bit rate                         : 708 Kbps
Channel(s)                               : 6 channels
Channel positions                        : Front: L C R, Side: L R, LFE
Sampling rate                            : 48.0 KHz
Compression mode                         : Lossy
Delay relative to video                  : 80ms
Stream size                              : 266 MiB (9%)

Enjoy...

Requested by SecretMythFanBoy 

Coming soon: Blade Trilogy, Interview with the Vampire, Apocalypse Hitler, Forrest Gump and more...		
FileSize
Exam-720p MP4 AAC x264 BRRip 2009-CC.mp42.80 Gb
Sample/Sample.mp427.20 Mb
Screens-Info/Exam-720p MP4 AAC x264 BRRip 2009-CC.mp4_snapshot_00.07.50.png773.02 Kb
Screens-Info/Exam-720p MP4 AAC x264 BRRip 2009-CC.mp4_snapshot_00.21.32.png793.47 Kb
Screens-Info/Exam-720p MP4 AAC x264 BRRip 2009-CC.mp4_snapshot_00.39.28.png705.53 Kb
Screens-Info/Exam-720p MP4 AAC x264 BRRip 2009-CC.mp4_snapshot_00.54.38.png1,010.36 Kb
Screens-Info/Exam-720p MP4 AAC x264 BRRip 2009-CC.mp4_snapshot_01.05.31.png922.31 Kb
Screens-Info/Exam-720p MP4 AAC x264 BRRip 2009-CC.mp4_snapshot_01.20.43.png920.20 Kb
Screens-Info/Info.txt4.82 Kb
Subs/Arabic.srt65.99 Kb
Subs/Brazilian.srt69.48 Kb
Subs/Czech.srt66.28 Kb
Subs/Danish.srt56.31 Kb
Subs/Dutch.srt68.08 Kb
Subs/English.srt70.19 Kb
Subs/Farsi-Persian.srt63.51 Kb
Subs/French.srt66.50 Kb
Subs/Greek.srt73.77 Kb
Subs/Hebrew.srt61.12 Kb
Subs/Hungarian.srt62.73 Kb
Subs/Indonesian.srt69.31 Kb
Subs/Italian.srt72.53 Kb
Subs/Macedonian.srt67.71 Kb
Subs/Norwegian.srt55.02 Kb
Subs/Portuguese.srt69.48 Kb
Subs/Romanian.srt68.17 Kb
Subs/Servian.srt67.50 Kb
Subs/Slovenian.srt60.70 Kb
Subs/Spanish.srt70.71 Kb
Subs/Turkish.srt71.48 Kb
Torrent downloaded from btscene.eu .txt47.00 b
Torrent downloaded from extratorrent.com.txt83.00 b
Torrent downloaded from h33t.com.txt32.00 b
Torrent downloaded from Limetorrents.com.txt48.00 b
Torrent downloaded from PublicHD.EU.txt89.00 b
Torrent downloaded from Silvertorrent.org.txt86.00 b
Torrent downloaded from torrentmafia.org.txt57.00 b
Torrent_downloaded_from_AhaShare.com.txt63.00 b
TrackerSeedsLeechsDownloaded
udp://tracker.openbittorrent.com:80/scrape4710
udp://9.rarbg.com:2710/scrape3710
udp://tracker.publicbt.com:80/scrape4410
udp://tracker.yify-torrents.com/scrape4710
udp://11.rarbg.com/scrape5510
http://fr33dom.h33t.com:3310/scrape000
http://tracker.thepiratebay.org/scrape000
http://exodus.desync.com:6969/scrape000
Report this torrent
We will carefully monitor this report and react whenever possible.
Thanks for helping us in filtering out bad content and improving TorrentReactor for every other visitor!
Please login or register to be able to report torrents.

Your comment
Please Login or register to be able to add comments.
All comments

No one has added a comment yet. Be the first one.

Related torrents
Exam-720p MP4 AAC x264 BRRip 2009-CC, related to Exam-720p MP4 AAC x264 BRRip 2009-CC