Download The Phantom Tollbooth (1970) torrent

The Phantom Tollbooth (1970) torrent

Total size: 591.71 Mb Seeds 0 Leechs 2
Milo is a boy who is bored with life. One day he comes home to find a toll booth in his room. Having nothing better to do, he gets in his toy car and drives through - only to emerge in a cartoon world full of adventure.
 
http://imageshack.us/a/img836/1026/vlcsnap2012121106h49m04.png 
http://imageshack.us/a/img818/3509/vlcsnap2012121106h49m25.png 
http://imageshack.us/a/img820/3263/vlcsnap2012121106h50m39.png 
http://imageshack.us/a/img651/2960/vlcsnap2012121106h51m02.png 
http://imageshack.us/a/img89/2446/vlcsnap2012121106h51m25.png

Video
ID                                       : 1
Format                                   : AVC
Format/Info                              : Advanced Video Codec
Format profile                           : Main@L3.0
Format settings, CABAC                   : Yes
Format settings, ReFrames                : 4 frames
Codec ID                                 : avc1
Codec ID/Info                            : Advanced Video Coding
Duration                                 : 1h 25mn
Bit rate                                 : 731 Kbps
Width                                    : 640 pixels
Height                                   : 448 pixels
Display aspect ratio                     : 1.417
Frame rate mode                          : Constant
Frame rate                               : 25.000 fps
Color space                              : YUV
Chroma subsampling                       : 4:2:0
Bit depth                                : 8 bits
Scan type                                : Progressive
Bits/(Pixel*Frame)                       : 0.102
Stream size                              : 448 MiB (76%)
Writing library                          : x264 core 120
Encoded date                             : UTC 2012-12-09 19:39:34
Tagged date                              : UTC 2012-12-09 00:50:38
Color primaries                          : BT.601 NTSC
Transfer characteristics                 : BT.709
Matrix coefficients                      : BT.601

Audio
ID                                       : 2
Format                                   : AC-3
Format/Info                              : Audio Coding 3
Mode extension                           : CM (complete main)
Format settings, Endianness              : Big
Codec ID                                 : ac-3
Duration                                 : 1h 25mn
Bit rate mode                            : Constant
Bit rate                                 : 224 Kbps
Channel(s)                               : 2 channels
Channel positions                        : Front: L R
Sampling rate                            : 44.1 KHz
Bit depth                                : 16 bits
Compression mode                         : Lossy
Stream size                              : 137 MiB (23%)
Encoded date                             : UTC 2012-12-09 19:39:34
Tagged date                              : UTC 2012-12-09 00:50:38

		
FileSize
The Phantom Tollbooth (1970).mp4586.57 Mb
The_Phantom_Tollbooth_(1970)_sample.mp45.14 Mb
TrackerSeedsLeechsDownloaded
udp://tracker.openbittorrent.com:80/scrape010
udp://tracker.publicbt.com:80/scrape010
http://tracker.thepiratebay.org/scrape000
Report this torrent
We will carefully monitor this report and react whenever possible.
Thanks for helping us in filtering out bad content and improving TorrentReactor for every other visitor!
Please login or register to be able to report torrents.

Your comment
Please Login or register to be able to add comments.
All comments

No one has added a comment yet. Be the first one.

Related torrents
The Phantom Tollbooth (1970), related to The Phantom Tollbooth (1970)