The Bourne Legacy 2012 BdRip HD BRP torrent

Fake torrent

The Bourne Legacy 2012 BdRip HD BRP torrent

Total size: 701.74 Mb Seeds 0 Leechs 0
[url=http://postimage.org/image/5nfubm4pv/][img]http://s13.postimage.org/5nfubm4pv/the_bourne_legacy.jpg[/img][/url]



Format                                   : AVI
Format profile                           : Base Media
Codec ID                                 : isom
File size                                : 701 MiB
Duration                                 : 1h 24mn
Overall bit rate mode                    : Variable
Overall bit rate                         : 1 531 Kbps
Encoded date                             : UTC 2012-07-03 15:40:16
Tagged date                              : UTC 2012-07-03 15:40:16

Video
ID                                       : 1
Format                                   : AVC
Format/Info                              : Advanced Video Codec
Format profile                           : High@L3.0
Format settings, CABAC                   : Yes
Format settings, ReFrames                : 5 frames
Codec ID                                 : avc1
Codec ID/Info                            : Advanced Video Coding
Duration                                 : 1h 24mn
Bit rate                                 : 1 400 Kbps
Maximum bit rate                         : 9 185 Kbps
Width                                    : 720 pixels
Height                                   : 384 pixels
Display aspect ratio                     : 1.85:1
Frame rate mode                          : Constant
Frame rate                               : 25.000 fps
Color space                              : YUV
Chroma subsampling                       : 4:2:0
Bit depth                                : 8 bits
Scan type                                : Progressive
Bits/(Pixel*Frame)                       : 0.203
Stream size                              : 845 MiB (91%)
Writing library                          : x264 core 120 r2164 da19765
Language                                 : English
Encoded date                             : UTC 2012-07-03 14:49:57
Tagged date                              : UTC 2012-07-03 15:40:53
Color primaries                          : BT.709-5, BT.1361, IEC 61966-2-4, SMPTE RP177
Transfer characteristics                 : BT.709-5, BT.1361
Matrix coefficients                      : BT.709-5, BT.1361, IEC 61966-2-4 709, SMPTE RP177
Encoder                                  : Kareemzos
Source                                   : R5 DVD5 - cheers!

Audio
ID                                       : 2
Format                                   : AAC
Format/Info                              : Advanced Audio Codec
Format profile                           : HE-AAC / LC
Codec ID                                 : 40
Duration                                 : 1h 24mn
Bit rate mode                            : Variable
Bit rate                                 : 128 Kbps
Maximum bit rate                         : 137 Kbps
Channel(s)                               : 2 channels
Channel positions                        : Front: L R
Sampling rate                            : 44.1 KHz / 22.05 KHz
Compression mode                         : Lossy
Delay relative to video                  : -2ms
Stream size                              : 77.3 MiB (8%)
Encoded date                             : UTC 2012-07-03 15:40:52
Tagged date                              : UTC 2012-07-03 15:40:53
Encoder                                  : Kareemzos
Source                                   : BiDA - cheers!
FileSize
The Bourne Legacy (2012).BdRip-HD-BRP/The Bourne Legacy (2012).BdRip-HD-BRP.avi701.74 Mb
The Bourne Legacy (2012).BdRip-HD-BRP/info.html2.40 Kb
TrackerSeedsLeechsDownloaded
udp://tracker.openbittorrent.com:80/scrape000
udp://tracker.istole.it:80/scrape000
udp://tracker.publicbt.com:80/scrape000
udp://10.rarbg.com/scrape000
http://exodus.desync.com:6969/scrape000
http://tracker.publicbt.com/scrape000
http://tracker.dler.org:6969/anno nce/scrape000
http://scrape.opensharing.org:2710/scrape000
http://tracker1.wasabii.com.tw:6969/scrape000
http://tracker.torrent.to:2710/scrape000
http://tracker.zond.org/scrape000
http://fr33dom.h33t.com:3310/scrape000
http://tracker.ex.ua/scrape000
http://tracker.ccc.de/scrape000
http://tracker.thepiratebay.org/scrape000
Report this torrent
We will carefully monitor this report and react whenever possible.
Thanks for helping us in filtering out bad content and improving TorrentReactor for every other visitor!
Please login or register to be able to report torrents.

Your comment

Please Login or register to be able to add comments.

All comments

No one has added a comment yet. Be the first one.

Related movies

Search for full movies The Bourne Legacy 2012 BdRip HD BRP torrent, related to The Bourne Legacy 2012 BdRip HD BRP torrent