Download The Man with the Iron Fists 2012 RETAIL DVDRip XviD PTpOWeR torrent

The Man with the Iron Fists 2012 RETAIL DVDRip XviD PTpOWeR torrent

Total size: 686.17 Mb Seeds 0 Leechs 0
Language .........: EnglishSubtitles ........: NoneVideoID : 0Format : MPEG-4 VisualFormat profile : Advanced Simple@L5Format settings, BVOP : YesFormat settings, QPel : NoFormat settings, GMC : No warppointsFormat settings, Matrix : Default (H.263)Codec ID : XVIDCodec ID/Hint : XviDDuration : 1h 24mnBit rate : 1 193 KbpsWidth : 704 pixelsHeight : 396 pixelsDisplay aspect ratio : 16:9Frame rate : 23.976 fpsColor space : YUVChroma subsampling : 4:2:0Bit depth : 8 bitsScan type : ProgressiveCompression mode : LossyBits/(Pixel*Frame) : 0.178Stream size : 719 MiB (72%)Writing library : XviD 1.2.1 (UTC 2008-12-04)AudioID : 1Format : AC-3Format/Info : Audio Coding 3Mode extension : CM (complete main)Codec ID : 2000Duration : 1h 24mnBit rate mode : ConstantBit rate : 448 KbpsChannel(s) : 6 channelsChannel positions : Front: L C R, Side: L R, LFESampling rate : 48.0 KHzBit depth : 16 bitsCompression mode : LossyVideo delay : 42msStream size : 270 MiB (27%)Alignment : Split accross interleavesInterleave, duration : 500 ms (11.99 video frames)
FileSize
The Man with the Iron Fists 2012 RETAIL DVDRip XviD-PTpOWeR/info.nfo5.09 Kb
The Man with the Iron Fists 2012 RETAIL DVDRip XviD-PTpOWeR/READ this before playing the Video.txt5.09 Kb
The Man with the Iron Fists 2012 RETAIL DVDRip XviD-PTpOWeR/The Man with the Iron Fists 2012 RETAIL DVDRip.wmv686.16 Mb
TrackerSeedsLeechsDownloaded
udp://tracker.openbittorrent.com:80/scrape000
udp://tracker.publicbt.com:80/scrape000
udp://tracker.istole.it:6969/scrape000
http://istole.h1x.com/tracker/scrape.php000
http://tracker.istole.it/scrape000
http://tracker.thepiratebay.org/scrape000
http://tracker.torrent.to:2710/scrape000
http://tracker.torrentbay.to:6969/scrape000
http://pow7.com/scrape000
http://t1.pow7.com/scrape000
http://10.rarbg.com/scrape000
http://tracker.token.ro/scrape000
http://9.rarbg.com:2710/scrape000
Report this torrent
We will carefully monitor this report and react whenever possible.
Thanks for helping us in filtering out bad content and improving TorrentReactor for every other visitor!
Please login or register to be able to report torrents.

Your comment

Please Login or register to be able to add comments.

All comments

No one has added a comment yet. Be the first one.

Related torrents

The Man with the Iron Fists 2012 RETAIL DVDRip XviD PTpOWeR, related to The Man with the Iron Fists 2012 RETAIL DVDRip XviD PTpOWeR