Verified torrent

Fun Size 2012 BDRiP XviD-SWAGGER torrent

Total size: 697.01 Mb Seeds 0 Leechs 0
Media Info - GeneralFormat : MPEG-PSFile size : 711 MiBDuration : 2h 6mnOverall bit rate mode : VariableOverall bit rate : 789 KbpsVideo #224ID : 224 (0xE0)Format : MPEG VideoFormat version : Version 2Format profile : Main@MainFormat settings, BVOP : YesFormat settings, Matrix : DefaultDuration : 2h 6mnBit rate mode : VariableBit rate : 645 KbpsMaximum bit rate : 9 672 KbpsWidth : 352 pixelsHeight : 288 pixelsDisplay aspect ratio : 4:3Frame rate : 25.000 fpsStandard : PALColor space : YUVChroma subsampling : 4:2:0Bit depth : 8 bitsScan type : ProgressiveCompression mode : LossyBits/(Pixel*Frame) : 0.255Stream size : 581 MiB (82%)Audio #192ID : 192 (0xC0)Format : MPEG AudioFormat version : Version 1Format profile : Layer 2Duration : 2h 6mnBit rate mode : ConstantBit rate : 128 KbpsChannel(s) : 2 channelsSampling rate : 48.0 KHzCompression mode : LossyStream size : 115 MiB (16%)
FileSize
Fun Size 2012 BDRiP XviD-SWAGGER/subtitles/English/subtitles.srt46.43 Kb
Fun Size 2012 BDRiP XviD-SWAGGER/subtitles/NL/subtitles.srt69.51 Kb
Fun Size 2012 BDRiP XviD-SWAGGER/subtitles/Polish/subtitles.srt31.13 Kb
Fun Size 2012 BDRiP XviD-SWAGGER/Fun Size (2012).wmv696.86 Mb
Fun Size 2012 BDRiP XviD-SWAGGER/Readme.txt4.96 Kb
Fun Size 2012 BDRiP XviD-SWAGGER/info.nfo4.96 Kb
TrackerSeedsLeechsDownloaded
udp://tracker.openbittorrent.com:80/scrape000
udp://tracker.publicbt.com:80/scrape000
udp://tracker.istole.it:6969/scrape000
http://istole.h1x.com/tracker/scrape.php000
http://tracker.istole.it/scrape000
http://tracker.thepiratebay.org/scrape000
http://pow7.com/scrape000
http://t1.pow7.com/scrape000
http://10.rarbg.com/scrape000
http://tracker.token.ro/scrape000
http://tracker.torrent.to:2710/scrape000
http://tracker.torrentbay.to:6969/scrape000
http://9.rarbg.com:2710/scrape000
Report this torrent
We will carefully monitor this report and react whenever possible.
Thanks for helping us in filtering out bad content and improving TorrentReactor for every other visitor!
Please login or register to be able to report torrents.

Your comment
Please Login or register to be able to add comments.
All comments

No one has added a comment yet. Be the first one.

Related torrents
Fun Size 2012 BDRiP XviD-SWAGGER, related to Fun Size 2012 BDRiP XviD-SWAGGER