Arrow.S01E04.1080p.WEB-DL.DD5.1.H.264-TB torrent

Total size: 1.53 Gb Seeds 0 Leechs 0
- 
http://www.Speed.Cd
 
http://www.Speed.Cd       the fast  and The Hottest Private Tracker on the net

Please Seed back to make the speed Faster!!
 ............ NFO .............
-General
Unique ID                                : 251313527604633650018190577837588671259 (0xBD11398E166F17AD9B0F72FBD7D0EB1B)
Complete name                            : Arrow.S01E04.An Innocent Man.1080p.WEB-DL.DD5.1.H.264-TB.mkv
Format                                   : Matroska
Format version                           : Version 2
File size                                : 1.53 GiB
Duration                                 : 42mn 32s
Overall bit rate                         : 5 162 Kbps
Movie name                               : Arrow S01E04 by TeddyBlue
Encoded date                             : UTC 2012-11-01 23:29:02
Writing application                      : mkvmerge v5.8.0 ('No Sleep / Pillow') built on Sep  2 2012 15:37:04
Writing library                          : libebml v1.2.3 + libmatroska v1.3.0

Video
ID                                       : 1
Format                                   : AVC
Format/Info                              : Advanced Video Codec
Format profile                           : [email protected]
Format settings, CABAC                   : Yes
Format settings, ReFrames                : 4 frames
Codec ID                                 : V_MPEG4/ISO/AVC
Duration                                 : 42mn 32s
Bit rate                                 : 4 675 Kbps
Width                                    : 1 920 pixels
Height                                   : 1 080 pixels
Display aspect ratio                     : 16:9
Frame rate mode                          : Constant
Frame rate                               : 23.976 fps
Color space                              : YUV
Chroma subsampling                       : 4:2:0
Bit depth                                : 8 bits
Scan type                                : Progressive
Bits/(Pixel*Frame)                       : 0.094
Stream size                              : 1.39 GiB (91%)
Language                                 : English
Default                                  : Yes
Forced                                   : No
Color primaries                          : BT.709
Transfer characteristics                 : BT.709
Matrix coefficients                      : BT.709

Audio
ID                                       : 2
Format                                   : AC-3
Format/Info                              : Audio Coding 3
Mode extension                           : CM (complete main)
Format settings, Endianness              : Big
Codec ID                                 : A_AC3
Duration                                 : 42mn 32s
Bit rate mode                            : Constant
Bit rate                                 : 384 Kbps
Channel(s)                               : 6 channels
Channel positions                        : Front: L C R, Side: L R, LFE
Sampling rate                            : 48.0 KHz
Bit depth                                : 16 bits
Compression mode                         : Lossy
Stream size                              : 117 MiB (7%)
Language                                 : English
Default                                  : Yes
Forced                                   : No
FileSize
Arrow.S01E04.An Innocent Man.1080p.WEB-DL.DD5.1.H.264-TB.mkv1.53 Gb
Arrow.S01E04.An Innocent Man.1080p.WEB-DL.DD5.1.H.264-TB.nfo6.21 Kb
www.Speed.Cd read me .txt47.00 b
www.Speed.Cd.txt47.00 b
TrackerSeedsLeechsDownloaded
udp://tracker.openbittorrent.com:80/scrape000
udp://tracker.publicbt.com:80/scrape000
http://tracker.thepiratebay.org/scrape000
Report this torrent
We will carefully monitor this report and react whenever possible.
Thanks for helping us in filtering out bad content and improving TorrentReactor for every other visitor!
Please login or register to be able to report torrents.

Your comment
Please Login or register to be able to add comments.
All comments

No one has added a comment yet. Be the first one.

Related torrents
Arrow.S01E04.1080p.WEB-DL.DD5.1.H.264-TB, related to Arrow.S01E04.1080p.WEB-DL.DD5.1.H.264-TB