English

Abraham Lincoln Vampire Hunter [2012] -=R=

Total size: 398.30 Mb Seeds 0 Leechs 0
[b]Abraham Lincoln: Vampire Hunter [2012] Dual Audio [Eng-Hindi (Hindi Audio Cam)[/b] 

[img]http://i.imgur.com/Jeggl.jpg[/img]

Complete name : Abraham Lincoln Vampire Hunter 2012
Format : Matroska
Format version : Version 2
File size : 398 MiB
Duration : 1h 45mn
Overall bit rate : 530 Kbps
Movie name : Encoded by apextream
Encoded date : UTC 2012-10-21 01:36:56
Writing application : mkvmerge v5.8.0 ('No Sleep / Pillow') built on Sep 2 2012 15:37:04
Writing library : libebml v1.2.3 + libmatroska v1.3.0

Video
ID : 1
Format : AVC
Format/Info : Advanced Video Codec
Format profile : High 10@L4.1
Format settings, CABAC : Yes
Format settings, ReFrames : 16 frames
Muxing mode : Header stripping
Codec ID : V_MPEG4/ISO/AVC
Bit rate : 401 Kbps
Width : 720 pixels
Height : 304 pixels
Display aspect ratio : 16:9
Original display aspect ratio : 2.35:1
Frame rate mode : Variable
Original frame rate : 23.976 fps
Color space : YUV
Chroma subsampling : 4:2:0
Bit depth : 10 bits
Scan type : Progressive
Bits/(Pixel*Frame) : 0.076
Title : apextream
Writing library : x264 core 125 r2208 d9d2288
Language : English
Default : Yes
Forced : No

Audio #1
ID : 2
Format : MPEG Audio
Format version : Version 1
Format profile : Layer 3
Mode : Joint stereo
Mode extension : MS Stereo
Muxing mode : Header stripping
Codec ID : A_MPEG/L3
Codec ID/Hint : MP3
Duration : 1h 45mn
Bit rate mode : Constant
Bit rate : 64.0 Kbps
Channel(s) : 2 channels
Sampling rate : 48.0 KHz
Compression mode : Lossy
Stream size : 48.1 MiB (12%)
Title : apextream
Writing library : LAME3.98.2
Language : English
Default : No
Forced : No

Audio #2
ID : 3
Format : MPEG Audio
Format version : Version 1
Format profile : Layer 3
Mode : Joint stereo
Mode extension : MS Stereo
Muxing mode : Header stripping
Codec ID : A_MPEG/L3
Codec ID/Hint : MP3
Duration : 1h 45mn
Bit rate mode : Constant
Bit rate : 64.0 Kbps
Channel(s) : 2 channels
Sampling rate : 48.0 KHz
Compression mode : Lossy
Stream size : 48.1 MiB (12%)
Title : apextream
Writing library : LAME3.98.2
Language : Hindi
Default : Yes
Forced : No 
[b]" THANKS 2 TEAM EXDR "[/b]

[img]http://i.imgur.com/B3zAh.png[/img]
[img]http://i.imgur.com/LipsH.png[/img]
[img]http://i.imgur.com/Ho0Mc.png[/img]
[img]http://i.imgur.com/saeUw.png[/img]
[img]http://i.imgur.com/GQcWL.png[/img]
[img]http://i.imgur.com/OZjty.png[/img]
[img]http://i.imgur.com/bQ6ww.png[/img]
[img]http://i.imgur.com/HYOzy.png[/img]
[img]http://i.imgur.com/1a2Fn.png[/img]
[img]http://i.imgur.com/OhKWr.png[/img]
FileSize
Abraham Lincoln Vampire Hunter [2012] -=R=-[www.mastitorrents.com].mkv398.14 Mb
Abraham Lincoln Vampire Hunter [2012] -=R=-[www.mastitorrents.com].srt158.19 Kb
TrackerSeedsLeechsDownloaded
udp://tracker.publicbt.com:80/scrape002
udp://tracker.openbittorrent.com:80/scrape000
udp://tracker.istole.it:80/scrape000
http://exodus.desync.com:6969/scrape000

Report this torrent

We will carefully monitor this report and react whenever possible.
Thanks for helping us in filtering out bad content and improving TorrentReactor for every other visitor!
Please login or register to be able to report torrents.

Your comment

Please Login or register to be able to add comments.

All comments

No one has added a comment yet. Be the first one.

Related torrents

Abraham Lincoln Vampire Hunter [2012] -=R=, related to Abraham Lincoln Vampire Hunter [2012] -=R=