Sinister 2012 DVDRip XviD VoMiT

Fake torrent

Sinister 2012 DVDRip XviD VoMiT

Total size: 695.06 Mb Seeds 0 Leechs 0
Frame rate                       : 23.067 fpsOriginal frame rate              : 23.976 fpsColor space                      : YUVChroma subsampling               : 4:2:0Bit depth                        : 8 bitsScan type                        : ProgressiveCompression mode                 : LossyBits/(Pixel*Frame)               : 0.254Stream size                      : 599 MiB (91%)Writing library                  : XviD 64AudioID                               : 1Format                           : MPEG AudioFormat version                   : Version 1Format profile                   : Layer 3Mode                             : Joint stereoMode extension                   : MS StereoCodec ID                         : 55Codec ID/Hint                    : MP3Duration                         : 1h 42mnBit rate mode                    : ConstantBit rate                         : 128 KbpsChannel(s)                       : 2 channelsSampling rate                    : 44.1 KHzCompression mode                 : LossyStream size                      : 93.7 MiB (9%)Alignment                        : Split accross interleavesInterleave, duration             : 43 ms (1.00 video frame)Interleave, preload duration     : 500 ms
FileSize
Sinister 2012 DVDRip XviD VoMiT/info.nfo4.96 Kb
Sinister 2012 DVDRip XviD VoMiT/Readme.txt683.00 b
Sinister 2012 DVDRip XviD VoMiT/Sinister 2012 DVDRip XviD.wmv694.91 Mb
Sinister 2012 DVDRip XviD VoMiT/subtitles/English/subtitles.srt46.43 Kb
Sinister 2012 DVDRip XviD VoMiT/subtitles/NL/subtitles.srt69.51 Kb
Sinister 2012 DVDRip XviD VoMiT/subtitles/Polish/subtitles.srt31.13 Kb
Sinister 2012 DVDRip XviD VoMiT/Torrent downloaded from AhaShare.com.txt59.00 b
Sinister 2012 DVDRip XviD VoMiT/Torrent Downloaded From BTScene.eu.txt34.00 b
Sinister 2012 DVDRip XviD VoMiT/Torrent downloaded from Demonoid.me.txt46.00 b
Sinister 2012 DVDRip XviD VoMiT/Torrent downloaded from Extratorrent.com.txt119.00 b
Sinister 2012 DVDRip XviD VoMiT/Torrent downloaded from h33t.com.txt32.00 b
Sinister 2012 DVDRip XviD VoMiT/Torrent downloaded from KAT.ph.txt30.00 b
Sinister 2012 DVDRip XviD VoMiT/Torrent downloaded from Rarbg.com.txt33.00 b
Sinister 2012 DVDRip XviD VoMiT/Torrent downloaded from silvertorrent.org.txt41.00 b
Sinister 2012 DVDRip XviD VoMiT/tracked_by_h33t_com.txt.txt23.00 b
TrackerSeedsLeechsDownloaded
udp://tracker.openbittorrent.com:80/scrape000
udp://tracker.publicbt.com:80/scrape000
udp://tracker.istole.it:6969/scrape000
http://istole.h1x.com/tracker/scrape.php000
http://tracker.thepiratebay.org/scrape000
http://tracker.istole.it/scrape000
http://pow7.com/scrape000
http://t1.pow7.com/scrape000
http://10.rarbg.com/scrape000
http://tracker.token.ro/scrape000
http://tracker.torrent.to:2710/scrape000
http://tracker.torrentbay.to:6969/scrape000
http://9.rarbg.com:2710/scrape000
Report this torrent
We will carefully monitor this report and react whenever possible.
Thanks for helping us in filtering out bad content and improving TorrentReactor for every other visitor!
Please login or register to be able to report torrents.

Your comment

Please Login or register to be able to add comments.

All comments

No one has added a comment yet. Be the first one.

Related movies

Search for full movies Sinister 2012 DVDRip XviD VoMiT, related to Sinister 2012 DVDRip XviD VoMiT