End of Watch 2012 DVDRip XviD VoMiT

End of Watch 2012 DVDRip XviD VoMiT

Total size: 689.23 Mb
Removed by the request of copyright owner

Frame rate                       : 23.067 fpsOriginal frame rate              : 23.976 fpsColor space                      : YUVChroma subsampling               : 4:2:0Bit depth                        : 8 bitsScan type                        : ProgressiveCompression mode                 : LossyBits/(Pixel*Frame)               : 0.254Stream size                      : 599 MiB (91%)Writing library                  : XviD 64AudioID                               : 1Format                           : MPEG AudioFormat version                   : Version 1Format profile                   : Layer 3Mode                             : Joint stereoMode extension                   : MS StereoCodec ID                         : 55Codec ID/Hint                    : MP3Duration                         : 1h 42mnBit rate mode                    : ConstantBit rate                         : 128 KbpsChannel(s)                       : 2 channelsSampling rate                    : 44.1 KHzCompression mode                 : LossyStream size                      : 93.7 MiB (9%)Alignment                        : Split accross interleavesInterleave, duration             : 43 ms (1.00 video frame)Interleave, preload duration     : 500 ms
FileSize
End of Watch 2012 DVDRip XviD VoMiT/End of Watch 2012 DVDRip XviD.wmv689.08 Mb
End of Watch 2012 DVDRip XviD VoMiT/info.nfo4.96 Kb
End of Watch 2012 DVDRip XviD VoMiT/Readme.txt4.96 Kb
End of Watch 2012 DVDRip XviD VoMiT/subtitles/English/subtitles.srt46.43 Kb
End of Watch 2012 DVDRip XviD VoMiT/subtitles/NL/subtitles.srt69.51 Kb
End of Watch 2012 DVDRip XviD VoMiT/subtitles/Polish/subtitles.srt31.13 Kb
End of Watch 2012 DVDRip XviD VoMiT/Torrent downloaded from AhaShare.com.txt59.00 b
End of Watch 2012 DVDRip XviD VoMiT/Torrent Downloaded From BTScene.eu.txt34.00 b
End of Watch 2012 DVDRip XviD VoMiT/Torrent downloaded from Demonoid.me.txt46.00 b
End of Watch 2012 DVDRip XviD VoMiT/Torrent downloaded from Extratorrent.com.txt119.00 b
End of Watch 2012 DVDRip XviD VoMiT/Torrent downloaded from h33t.com.txt32.00 b
End of Watch 2012 DVDRip XviD VoMiT/Torrent downloaded from KAT.ph.txt30.00 b
End of Watch 2012 DVDRip XviD VoMiT/Torrent downloaded from Rarbg.com.txt33.00 b
End of Watch 2012 DVDRip XviD VoMiT/Torrent downloaded from silvertorrent.org.txt41.00 b
End of Watch 2012 DVDRip XviD VoMiT/tracked_by_h33t_com.txt.txt23.00 b
TrackerSeedsLeechsDownloaded
http://tracker.openbittorrent.com:80000
http://tracker.istole.it:6969000
http://tracker.istole.it/scrape000
http://istole.h1x.com/tracker/scrape.php000
http://tracker.publicbt.com:80000
http://tracker.publicbt.com/scrape000
http://pow7.com/scrape000
http://t1.pow7.com/scrape000
http://10.rarbg.com/scrape000
http://tracker.torrent.to:2710/scrape000
http://tracker.token.ro/scrape000
http://tracker.torrentbay.to:6969/scrape015
http://tracker.ccc.de:80000
http://tracker.thepiratebay.org/scrape000
http://9.rarbg.com:2710/scrape000

It's removed by the request of copyright owner, but we have tons of cool stuff like this:

Search for full movies End Of Watch 2012 TRUEFRENCH BDRip XviD AC3 UTT avi, related to End Of Watch 2012 TRUEFRENCH BDRip XviD AC3 UTT avi