Sinister 2012 FRENCH DVDRip XviD 3PsiLoN

Sinister 2012 FRENCH DVDRip XviD 3PsiLoN

Total size: 699.70 Mb
Removed by the request of copyright owner

Sinister (2012) FRENCH DVDRip XviD - 3PsiLoNSTATS:VideoID                               : 0Format                           : MPEG-4 VisualFormat profile                   : Advanced Simple@L5Format settings, BVOP            : 2Format settings, QPel            : NoFormat settings, GMC             : No warppointsFormat settings, Matrix          : Default (MPEG)Muxing mode                      : Packed bitstreamCodec ID                         : XVIDCodec ID/Hint                    : XviDDuration                         : 1h 50mnBit rate                         : 986 KbpsWidth                            : 720 pixelsHeight                           : 320 pixelsDisplay aspect ratio             : 2.25:1Frame rate                       : 29.970 fpsColor space                      : YUVChroma subsampling               : 4:2:0Bit depth                        : 8 bitsScan type                        : ProgressiveCompression mode                 : LossyBits/(Pixel*Frame)               : 0.243Stream size                      : 700 MiB (92%)Writing library                  : XviD 64AudioFormat                           : MPEG AudioFormat version                   : Version 1Format profile                   : Layer 3Mode                             : Joint stereoMode extension                   : MS StereoCodec ID                         : 55Codec ID/Hint                    : MP3Duration                         : 1h 50mnBit rate mode                    : ConstantBit rate                         : 128 KbpsChannel(s)                       : 2 channelsSampling rate                    : 48.0 KHzCompression mode                 : LossyStream size                      : 51 MiB (7%)Alignment                        : Split accross interleavesInterleave, duration             : 33 ms (1.00 video frame)Interleave, preload duration     : 500 ms`
FileSize
Sinister (2012) FRENCH DVDRip XviD - 3PsiLoN/cover.jpg126.75 Kb
Sinister (2012) FRENCH DVDRip XviD - 3PsiLoN/screenshot1.jpg124.72 Kb
Sinister (2012) FRENCH DVDRip XviD - 3PsiLoN/Sinister (2012) FRENCH DVDRip XviD - 3PsiLoN.nfo1.91 Kb
Sinister (2012) FRENCH DVDRip XviD - 3PsiLoN/Sinister (2012) FRENCH DVDRip XviD - 3PsiLoN/Sinister (2012) FRENCH DVDRip XviD - 3PsiLoN.rar699.45 Mb
TrackerSeedsLeechsDownloaded
http://tracker.openbittorrent.com/scrape000
http://tracker.publicbt.com/scrape000
http://tracker.torrentbox.com:2710/scrape000
http://exodus.desync.com:6969/scrape000
http://fr33dom.h33t.com:3310/scrape000
http://cpleft.com:2710/scrape000
http://tra ker.openbittorrent.com/scrape000
http://secure.pow7.com/scrape000
http://tracker.openbittorrent.com:80000
http://tracker.publicbt.com:80000
http://tracker.novalayer.org:6969/scrape000
http://t1.pow7.com/scrape000
http://inferno.demonoid.me:3409/scrape000
http://luckybittorrent.com:2710/scrape000
http://10.rarbg.com/scrape000
http://pow7.com/scrape000
http://tracker.zond.org/scrape000
http://tracker.ccc.de/scrape000
http://tracker.ccc.de:80000
http://tracker.thepiratebay.org/scrape000
http://tracker.torrentbay.to:6969/scrape000

It's removed by the request of copyright owner, but we have tons of cool stuff like this:

Search for full movies Sinister 2012 HDRip AC3 Castellano, related to Sinister 2012 HDRip AC3 Castellano