Download Resident Evil 5 Retribution (2012).DvdRip.HQ-THC torrent

Fake torrent

Resident Evil 5 Retribution (2012).DvdRip.HQ-THC torrent

Total size: 703.69 Mb Seeds 0 Leechs 1

[url=http://postimage.org/image/ewkb4fgqn/][img]http://s11.postimage.org/ewkb4fgqn/3_resident_evil_retribution_poster.jpg[/img][/url]


General
Complete name                            : Resident Evil Retribution TS x264 AAC-UNiQUE.mp4
Format                                   : AVI
Format profile                           : Base Media
Codec ID                                 : isom
File size                                : 1.44 GiB
Duration                                 : 1h 24mn
Overall bit rate mode                    : Variable
Overall bit rate                         : 2 425 Kbps
Encoded date                             : UTC 2012-09-15 12:21:45

Video
ID                                       : 1
Format                                   : AVI
Format/Info                              : Advanced Video Codec
Format profile                           : High@L4.1
Format settings, CABAC                   : Yes
Format settings, ReFrames                : 3 frames
Codec ID                                 : avc1
Codec ID/Info                            : Advanced Video Coding
Duration                                 : 1h 24mn
Bit rate mode                            : Variable
Bit rate                                 : 2 296 Kbps
Maximum bit rate                         : 40.0 Mbps
Width                                    : 720 pixels
Height                                   : 304 pixels
Display aspect ratio                     : 2.35:1
Frame rate mode                          : Constant
Frame rate                               : 25.000 fps
Color space                              : YUV
Chroma subsampling                       : 4:2:0
Bit depth                                : 8 bits
Scan type                                : Progressive
Bits/(Pixel*Frame)                       : 0.420
Stream size                              : 1.36 GiB (95%)
Writing library                          : x264 core 125 r2208 d9d2288

Audio
ID                                       : 2
Format                                   : AAC
Format/Info                              : Advanced Audio Codec
Format profile                           : LC
Codec ID                                 : 40
Duration                                 : 1h 24mn
Bit rate mode                            : Variable
Bit rate                                 : 125 Kbps
Maximum bit rate                         : 148 Kbps
Channel(s)                               : 2 channels
Channel positions                        : Front: L R
Sampling rate                            : 48.0 KHz
Compression mode                         : Lossy
Stream size                              : 76.1 MiB (5%)
Language                                 : English
Encoded date                             : UTC 2012-09-15 12:22:18



Storyline
Alice fights alongside a resistance movement in the continuing battle against the Umbrella Corporation and the undead.

iMDB: http://www.imdb.com/title/tt1855325/





FileSize
Resident Evil 5 Retribution (2012).DvdRip.HQ-THC/info.html2.37 Kb
Resident Evil 5 Retribution (2012).DvdRip.HQ-THC/Resident Evil 5 Retribution (2012).DvdRip.HQ-THC.avi703.69 Mb
TrackerSeedsLeechsDownloaded
http://tracker.openbittorrent.com/scrape000
http://tracker.istole.it/scrape000
http://scrape.opensharing.org:2710/scrape000
http://fr33domtracker.h33t.com:3310/scrape1225
http://tracker.publicbt.com/scrape000
http://tracker.torrent.to:2710/scrape000
http://10.rarbg.com/scrape000
http://tracker.zond.org/scrape000
http://fr33dom.h33t.com:3310/scrape1225
http://tracker1.wasabii.com.tw:6969/scrape110
http://tracker.1337x.org/scrape000
http://exodus.desync.com:6969/scrape000
http://tracker.dler.org:6969/anno nce000
http://tracker.ex.ua/scrape000
http://tracker.ccc.de/scrape000
http://tracker.thepiratebay.org/scrape000
Report this torrent
We will carefully monitor this report and react whenever possible.
Thanks for helping us in filtering out bad content and improving TorrentReactor for every other visitor!
Please login or register to be able to report torrents.

Your comment
Please Login or register to be able to add comments.
All comments

No one has added a comment yet. Be the first one.

Related torrents
Resident Evil 5 Retribution (2012).DvdRip.HQ-THC, related to Resident Evil 5 Retribution (2012).DvdRip.HQ-THC