The Expendables 2 DVDRiP XViD iNT CoRa

The Expendables 2 DVDRiP XViD iNT CoRa

Total size: 689.23 Mb
Removed by the request of copyright owner

Format : MPEG-4 VisualFormat profile : Advanced Simple@L5Format settings, BVOP : 1Format settings, QPel : NoFormat settings, GMC : No warppointsFormat settings, Matrix : Default (H.263)Codec ID : XVIDCodec ID/Hint : XviDDuration : 1h 25mnBit rate : 1 325 KbpsWidth : 640 pixelsHeight : 264 pixelsDisplay aspect ratio : 2.40:1Frame rate : 25.000 fpsColor space : YUVChroma subsampling : 4:2:0Bit depth : 8 bitsScan type : ProgressiveCompression mode : LossyBits/(Pixel*Frame) : 0.314Stream size : 807 MiB (87%)Writing library : XviD 1.2.1 (UTC 2008-12-04)AudioID : 1Format : AC-3Format/Info : Audio Coding 3Mode extension : CM (complete main)Codec ID : 2000Duration : 1h 25mnBit rate mode : ConstantBit rate : 192 KbpsChannel(s) : 2 channelsChannel positions : Front: L RSampling rate : 48.0 KHzBit depth : 16 bitsCompression mode : LossyStream size : 117 MiB (13%)Alignment : Aligned on interleavesInterleave, duration : 40 ms (1.00 video frame)Interleave, preload duration : 512 ms
FileSize
The Expendables 2.DVDRiP.XViD.iNT-CoRa/subtitles/English/subtitles.srt46.43 Kb
The Expendables 2.DVDRiP.XViD.iNT-CoRa/subtitles/NL/subtitles.srt69.51 Kb
The Expendables 2.DVDRiP.XViD.iNT-CoRa/subtitles/Polish/subtitles.srt31.13 Kb
The Expendables 2.DVDRiP.XViD.iNT-CoRa/The Expendables 2.2012.SWESUB.DVDRip.wmv689.08 Mb
The Expendables 2.DVDRiP.XViD.iNT-CoRa/Readme.txt4.96 Kb
The Expendables 2.DVDRiP.XViD.iNT-CoRa/info.nfo4.96 Kb
The Expendables 2.DVDRiP.XViD.iNT-CoRa/Torrent downloaded from Extratorrent.com.txt119.00 b
The Expendables 2.DVDRiP.XViD.iNT-CoRa/Torrent downloaded from AhaShare.com.txt59.00 b
The Expendables 2.DVDRiP.XViD.iNT-CoRa/Torrent downloaded from Demonoid.me.txt46.00 b
The Expendables 2.DVDRiP.XViD.iNT-CoRa/Torrent downloaded from silvertorrent.org.txt41.00 b
The Expendables 2.DVDRiP.XViD.iNT-CoRa/Torrent Downloaded From BTScene.eu.txt34.00 b
The Expendables 2.DVDRiP.XViD.iNT-CoRa/Torrent downloaded from Rarbg.com.txt33.00 b
The Expendables 2.DVDRiP.XViD.iNT-CoRa/Torrent downloaded from h33t.com.txt32.00 b
The Expendables 2.DVDRiP.XViD.iNT-CoRa/Torrent downloaded from KAT.ph.txt30.00 b
The Expendables 2.DVDRiP.XViD.iNT-CoRa/tracked_by_h33t_com.txt.txt23.00 b
TrackerSeedsLeechsDownloaded
http://tracker.torrent.to:2710/scrape000
http://tracker.istole.it/scrape000
http://tracker.istole.it:6969000
http://tracker.thepiratebay.org/scrape000
http://tracker.token.ro/scrape000
http://10.rarbg.com/scrape000
http://t1.pow7.com/scrape000
http://pow7.com/scrape000
http://tracker.openbittorrent.com:80000
http://tracker.publicbt.com:80000
http://tracker.publicbt.com/scrape000
http://istole.h1x.com/tracker/scrape.php32818780
http://9.rarbg.com:2710/scrape000
http://tracker.torrentbay.to:6969/scrape000
http://tracker.ccc.de:80000
Search for full movies The Expendables 2 2012 BRRip 720p English 5 1 E Subs x264 RickyKT SilverRG, related to The Expendables 2 2012 BRRip 720p English 5 1 E Subs x264 RickyKT SilverRG